<?xml version="1.0" standalone="no"?>
<!DOCTYPE svg PUBLIC "-//W3C//DTD SVG 1.1//EN" "http://www.w3.org/Graphics/SVG/1.1/DTD/svg11.dtd" >
<svg xmlns="http://www.w3.org/2000/svg">
<metadata>Generated by IcoMoon</metadata>
<defs>
<font id="icomoon" horiz-adv-x="1024">
<font-face units-per-em="1024" ascent="960" descent="-64" />
<missing-glyph horiz-adv-x="1024" />
<glyph unicode="&#x20;" horiz-adv-x="512" d="" />
<glyph unicode="&#x13000;" glyph-name="g1-book" d="M204.8 656.612c0 46.35 38.487 81.7 84.953 77.816v0l7.663-0.729c60.318-6.562 144.455-34.345 196.691-64.772v0l14.052-8.416c1.363-0.842 6.319-0.842 7.345-0.213v0l5.086 3.271c53.781 33.663 148.23 65.165 213.45 70.648v0l4.204 0.24c44.59 1.435 80.956-33.007 80.956-78.132v0-343.118c0-38.125-30.419-72.707-68.574-77.451v0l-9.187-1.108c-59.551-7.879-153.026-38.559-205.299-67.265-14.009-8.039-34.312-8.039-47.742-0.595v0l-1.827 0.926c-52.621 28.627-145.838 59.049-205.26 66.948v0l-8.014 1.103c-38.079 4.735-68.498 39.317-68.498 77.442v0zM776.335 656.328c0 21.52-17.166 37.132-40.58 35.25v0l-7.217-0.72c-56.502-6.471-139.115-34.583-184.892-63.234v0l-5.198-3.341c-2.138-1.32-4.419-2.454-6.802-3.403l-0.017-407.794c58.345 28.573 145.221 56.035 204.403 63.864v0l9.354 1.129c16.548 2.058 30.949 18.431 30.949 35.13v0zM283.134 692.076c-19.981 0.145-35.469-15.053-35.469-35.464v0-343.402c0-16.7 14.402-33.073 31.223-35.166v0l16.799-2.376c57.853-9.086 138.163-34.712 193.114-61.169l-0.032 407.967c-1.008 0.512-1.989 1.062-2.94 1.65v0l-13.683 8.185c-49.197 28.524-131.888 55.281-185.358 59.594v0z" />
<glyph unicode="&#x13001;" glyph-name="g2-people" d="M627.2 404.48c153.6 0 192-115.2 192-153.6s-38.4-38.4-38.4-38.4v0h-307.2c0 0-38.4 0-38.4 38.4s38.4 153.6 192 153.6zM396.8 404.48c9.473 0 18.507-0.438 27.122-1.269 17.405-1.68 33.095-4.963 47.219-9.481-12.292-9.492-23.144-20.037-32.492-31.344-27.362-33.093-41.848-72.71-41.848-111.506 0-14.559 2.901-27.491 8.308-38.4v0h-161.908c-25.6 0-38.4 12.801-38.4 38.4 0 38.4 38.4 153.6 192 153.6zM627.2 366.080c-65.944 0-103.167-24.167-124.445-48.991-22.748-26.538-29.1-55.937-29.155-66.075l0.313-0.058c0.227-0.036 0.413-0.061 0.545-0.077h305.484c0.132 0.015 0.319 0.040 0.545 0.077 0.106 0.019 0.211 0.036 0.313 0.058-0.056 10.138-6.407 39.537-29.155 66.075-21.277 24.824-58.5 48.991-124.445 48.991zM393.73 366.063c-64.034-0.737-100.43-24.538-121.374-48.973-22.848-26.655-29.155-56.196-29.155-66.209h115.2c0 40.14 12.386 80.118 35.33 115.183zM377.6 654.080c63.623 0 115.2-51.577 115.2-115.2s-51.577-115.2-115.2-115.2c-63.623 0-115.2 51.577-115.2 115.2s51.577 115.2 115.2 115.2zM627.2 673.28c63.623 0 115.2-51.577 115.2-115.2s-51.577-115.2-115.2-115.2c-63.623 0-115.2 51.577-115.2 115.2s51.577 115.2 115.2 115.2zM377.6 615.68c-42.415 0-76.8-34.385-76.8-76.8s34.385-76.8 76.8-76.8c42.415 0 76.8 34.385 76.8 76.8s-34.385 76.8-76.8 76.8zM627.2 634.88c-42.415 0-76.8-34.385-76.8-76.8s34.385-76.8 76.8-76.8c42.415 0 76.8 34.385 76.8 76.8s-34.385 76.8-76.8 76.8z" />
<glyph unicode="&#x13002;" glyph-name="g3-screen" d="M588.8 275.968c0-30.584 3.199-53.522 9.6-68.813h28.8c10.603 0 19.2-10.269 19.2-22.938s-8.597-22.938-19.2-22.938h-230.4c-10.603 0-19.2 10.269-19.2 22.938s8.597 22.938 19.2 22.938h28.8c6.401 15.291 9.6 38.229 9.6 68.813h153.6zM742.778 734.714c5.804-0.149 76.422-3.764 76.422-91.744v0-275.251c0 0 0-0.020 0-0.061l-0.007-0.475c-0.147-7.497-3.432-91.215-76.793-91.215v0l-461.178 0.006c-5.804 0.149-76.422 3.764-76.422 91.744v0l0.007 275.787c0.147 7.497 3.432 91.215 76.793 91.215v0zM742.053 688.845h-460.453c-12.481 0-19.288-3.596-23.099-6.631-4.052-3.227-7.232-7.858-9.754-13.885-2.598-6.206-4.088-12.968-4.868-18.565-0.375-2.69-0.548-4.831-0.625-6.12-0.021-0.356-0.035-0.64-0.043-0.843l-0.009-275.082c0-14.909 3.010-23.043 5.551-27.596 2.701-4.841 6.578-8.641 11.622-11.654 5.195-3.103 10.855-4.883 15.54-5.816 2.252-0.448 4.044-0.655 5.123-0.748 0.448-0.037 0.758-0.055 0.911-0.062h460.454c12.481 0 19.288 3.595 23.099 6.632 4.053 3.227 7.232 7.858 9.756 13.884 2.596 6.206 4.086 12.969 4.867 18.566 0.375 2.689 0.549 4.83 0.625 6.118 0.033 0.536 0.046 0.906 0.053 1.090v274.837c0 14.91-3.011 23.043-5.552 27.596-2.701 4.84-6.576 8.64-11.621 11.653-5.196 3.103-10.855 4.883-15.54 5.816-2.251 0.448-4.044 0.655-5.124 0.747-0.448 0.038-0.757 0.056-0.911 0.063z" />
<glyph unicode="&#x13003;" glyph-name="g4-arrow" d="M619.935 581.12l199.265-133.12-199.265-133.12 46.484 116.48h-445.014c-9.171 0-16.605 7.45-16.605 16.64 0 8.534 6.41 15.567 14.669 16.528l1.937 0.112h445.014l-46.484 116.48z" />
<glyph unicode="&#x13004;" glyph-name="g5-arrow-rtl" d="M404.065 581.12l-199.265-133.12 199.265-133.12-46.484 116.48h445.014c9.171 0 16.605 7.45 16.605 16.64 0 8.534-6.41 15.567-14.669 16.528l-1.937 0.112h-445.014l46.484 116.48z" />
<glyph unicode="&#x13005;" glyph-name="g6-search" d="M655.312 358.977h-28.47l-10.092 9.727c43.246 50.427 65.591 119.221 53.338 192.337-16.938 100.13-100.551 180.091-201.458 192.336-152.447 18.73-280.746-109.495-262.006-261.85 12.253-100.85 92.26-184.412 192.45-201.343 73.158-12.246 141.994 10.088 192.448 53.307l9.731-10.084v-28.454l153.166-153.078c14.776-14.765 38.922-14.765 53.699 0 14.776 14.769 14.776 38.899 0 53.668l-152.805 153.435zM439.051 358.961c-89.737 0-162.176 72.396-162.176 162.083 0 89.685 72.439 162.081 162.176 162.081s162.179-72.396 162.179-162.081c0-89.687-72.442-162.083-162.179-162.083z" />
<glyph unicode="&#x13006;" glyph-name="g7-mail" d="M672.921 693.76c2.777-0.008 5.455-0.023 8.039-0.046v0l14.43-0.237 12.478-0.48c23.2-1.245 36.45-4.314 50.336-11.376 21.020-10.69 38.108-27.749 48.817-48.729 0.455-0.892 0.894-1.773 1.316-2.648v0l2.345-5.199c2.88-6.909 4.802-13.898 6.077-23.006v0l0.84-7.261 0.318-4.141c1.41-4.47 1.642-9.169 0.773-13.66l0.269-10.662 0.164-12.352 0.075-200.28-0.075-21.871-0.164-12.352-0.289-10.792-0.443-9.424-0.627-8.247-0.84-7.26c-1.435-10.247-3.687-17.811-7.202-25.598v0l-2.535-5.256c-10.709-20.982-27.798-38.040-48.818-48.73-0.894-0.455-1.777-0.892-2.653-1.314v0l-5.208-2.34c-6.922-2.875-13.924-4.793-23.048-6.066v0l-7.274-0.839-8.262-0.626-9.441-0.443-10.812-0.288-12.375-0.163-357.45 0.451-9.441 0.443-8.262 0.626-7.274 0.839c-10.265 1.432-17.843 3.68-25.643 7.189v0l-5.265 2.531c-21.020 10.69-38.109 27.747-48.82 48.73-7.074 13.86-10.149 27.087-11.396 50.274v0l-0.481 12.473c-0.058 2.233-0.106 4.548-0.145 6.951v0l-0.138 15.515v209.668c0.009 2.772 0.023 5.445 0.046 8.025v0l0.237 14.404 0.251 6.576c-0.926 4.597-0.697 9.421 0.772 13.999 1.523 18.306 4.651 29.973 10.854 42.125 10.71 20.981 27.799 38.039 48.818 48.73 13.884 7.062 27.135 10.131 50.335 11.376v0l12.478 0.48c2.234 0.058 4.55 0.106 6.953 0.145v0l15.517 0.137zM763.341 528.763l-197.829-138.148-7.184-4.739-6.030-3.692c-5.578-3.232-9.983-5.182-14.893-6.715l-5.139-1.426c-13.307-3.312-27.225-3.312-40.526-0.001l-5.141 1.426c-4.911 1.533-9.319 3.484-14.897 6.716l-6.031 3.692-7.183 4.738-13.751 9.491-184.036 128.595 0.005-196.962 0.289-16.49 0.369-8.883 0.531-7.427 0.709-6.17 0.905-5.113c0.841-3.875 1.904-6.857 3.235-9.464 5.354-10.49 13.898-19.018 24.41-24.364v0l2.674-1.227 2.947-1.056 3.369-0.898 3.939-0.751 4.658-0.616 8.659-0.697 7.103-0.33 8.341-0.237 20.989-0.238 327.594 0.084 18.069 0.391 7.103 0.33 8.659 0.697 4.658 0.616 3.94 0.751c0.605 0.137 1.186 0.28 1.747 0.43v0l3.14 0.976c0.49 0.176 0.966 0.359 1.43 0.549v0l2.675 1.227c10.509 5.345 19.052 13.872 24.407 24.363 0.22 0.43 0.432 0.866 0.637 1.31v0l1.142 2.787c0.176 0.489 0.346 0.993 0.509 1.515v0l0.9 3.363 0.753 3.932 0.618 4.65 0.699 8.643 0.331 7.091 0.237 8.326 0.239 20.951 0.023 188.001zM679.275 637.973l-350.998-0.289-8.899-0.369-7.44-0.53-6.181-0.708-5.122-0.904c-3.882-0.839-6.869-1.901-9.481-3.229-10.51-5.345-19.054-13.874-24.409-24.365-1.331-2.607-2.394-5.588-3.235-9.462v0l-0.536-2.95 227.344-158.724 6.568-4.267 3.128-1.836 2.414-1.212 1.946-0.744c0.299-0.094 0.589-0.174 0.874-0.246 4.433-1.103 9.069-1.103 13.507 0.001l0.873 0.245 1.944 0.744 2.413 1.212 3.127 1.836 6.568 4.267 13.551 9.335 213.854 149.44-0.646 3.386c-0.069 0.302-0.139 0.598-0.211 0.888l-0.22 0.855-0.978 3.134c-0.176 0.489-0.36 0.964-0.55 1.428v0l-1.229 2.669c-5.355 10.491-13.898 19.019-24.406 24.364-2.612 1.328-5.599 2.39-9.48 3.229v0l-5.118 0.904-6.175 0.708c-1.128 0.103-2.309 0.198-3.546 0.286v0l-8.132 0.447-9.685 0.294-11.438 0.159z" />
<glyph unicode="&#x13007;" glyph-name="g8-plus" d="M512 755.2c14.322 0 26.126-10.781 27.739-24.67l0.188-3.257v-251.345h251.345c15.424 0 27.927-12.503 27.927-27.927 0-14.322-10.781-26.126-24.67-27.739l-3.257-0.188h-251.345v-251.345c0-15.424-12.503-27.927-27.927-27.927-14.322 0-26.126 10.781-27.739 24.67l-0.188 3.257v251.345h-251.345c-15.424 0-27.927 12.503-27.927 27.927 0 14.322 10.781 26.126 24.67 27.739l3.257 0.188h251.345v251.345c0 15.424 12.503 27.927 27.927 27.927z" />
<glyph unicode="&#x13008;" glyph-name="g9-home" d="M410.733 725.943c47.938 37.336 124.956 39.145 174.76 4.234v0l170.803-119.837c35.626-24.864 62.905-77.195 62.905-120.708v0-201.554c0-80.997-66.083-147.278-147.118-147.278v0h-320.164c-81.090 0-147.118 66.335-147.118 147.554v0 205.155c0 40.799 24.586 90.978 56.888 116.136v0zM550.216 679.874c-27.727 19.435-75.12 18.322-101.709-2.386v0l-149.023-116.281c-17.417-13.565-33.244-45.868-33.244-67.697v0-205.155c0-47.35 38.585-86.114 85.678-86.114v0h320.164c47.062 0 85.678 38.732 85.678 85.838v0 201.554c0 23.439-17.472 56.955-36.69 70.369v0zM567.296 313.314c16.966 0 30.72-13.754 30.72-30.72 0-15.754-11.859-28.739-27.137-30.513l-3.583-0.207h-110.592c-16.966 0-30.72 13.754-30.72 30.72 0 15.754 11.859 28.739 27.137 30.513l3.583 0.207h110.592z" />
<glyph unicode="&#x13009;" glyph-name="g10-archive" d="M712.037 755.2c68.99 0 107.163-38.173 107.163-107.164v0-57.154c0-55.966-25.12-91.652-71.433-103.132l-0.009-239.785c0-72.334-26.903-105.208-100.356-107.079l-6.806-0.085h-257.191c-76.293 0-105.44 30.747-107.088 100.697l-0.075 6.467-0.009 239.785c-46.313 11.48-71.433 47.166-71.433 103.132v0 57.154c0 68.991 38.172 107.164 107.163 107.164v0zM704.891 483.727h-385.792l0.008-235.763c0-50.236 10.007-63.405 58.908-64.254l262.58-0.045c49.869 0 62.613 10.635 64.134 54.092l0.164 10.207-0.002 235.763zM564.010 412.274c11.837 0 21.433-9.596 21.433-21.433 0-10.851-8.063-19.818-18.524-21.237l-2.908-0.196h-104.019c-11.837 0-21.433 9.596-21.433 21.433 0 10.851 8.063 19.818 18.524 21.237l2.908 0.196h104.019zM712.037 712.334h-400.074c-45.317 0-64.298-18.981-64.298-64.299v0-57.154c0-45.317 18.981-64.299 64.298-64.299v0h400.074c45.317 0 64.298 18.981 64.298 64.299v0 57.154c0 45.317-18.981 64.299-64.298 64.299v0z" />
<glyph unicode="&#x1300a;" glyph-name="g11-document" d="M529.572 755.2c1.984-0.009 3.866-0.022 5.655-0.043v0l9.721-0.213 8.046-0.43c6.154-0.464 11.117-1.214 16.273-2.4 7.18-1.651 14.174-3.948 20.893-6.854 0.131-0.054 0.26-0.109 0.388-0.166 4.346-1.901 8.577-4.056 12.667-6.457v0l4.025-2.467 3.837-2.609 3.95-2.999c0.684-0.546 1.386-1.118 2.111-1.722v0l4.683-4.045 8.739-8.030 123.697-118.461 10.953-10.784 3.89-4.053 3.19-3.542 4.057-4.984 3.114-4.264 1.715-2.581c2.473-3.867 4.7-7.868 6.672-11.981 0.137-0.273 0.266-0.544 0.388-0.819 3.046-6.487 5.46-13.25 7.202-20.202l-0.273 0.99 0.992-1.585c0.547-1.045 0.995-2.131 1.353-3.248l0.469-1.698 0.461-2.616c0.052-0.429 0.094-0.853 0.129-1.301v0l0.13-3.204 0.019-255.118-0.233-16.894-0.419-8.825c-0.938-13.398-3.195-20.877-8.653-31.897v0l-3.674-7.112c-11.378-21.391-29.469-38.725-51.653-49.554v0l-4.731-2.194-4.706-1.919-4.815-1.662-5.055-1.424c-0.87-0.218-1.755-0.428-2.659-0.628v0l-5.664-1.099-6.235-0.905-6.938-0.73-7.774-0.572-13.517-0.6-16.141-0.346-19.211-0.152-258.256 0.152-16.141 0.346-13.517 0.6-7.774 0.572-6.938 0.729-6.235 0.905c-0.988 0.167-1.952 0.341-2.895 0.524v0l-5.428 1.203-5.055 1.424-4.814 1.662-4.706 1.919-4.73 2.193c-22.187 10.83-40.28 28.165-51.655 49.556v0l-3.674 7.112c-5.458 11.020-7.715 18.502-8.653 31.924v0l-0.419 8.841-0.233 16.93 0.025 340.783 0.307 19.49 0.42 11.13 0.631 9.844c1.621 20.062 4.97 32.304 11.597 44.765 11.375 21.391 29.468 38.726 51.654 49.557 0.943 0.46 1.884 0.904 2.827 1.331v0l5.712 2.374c8.688 3.283 18.096 5.35 30.699 6.626v0l8.902 0.739 10.012 0.533 17.455 0.474 13.499 0.14zM389.865 715.96l-17.963-0.226-14.676-0.495-8.207-0.507-7.118-0.667-6.179-0.845-5.389-1.039c-2.522-0.571-4.802-1.221-6.927-1.96v0l-4.064-1.598-1.922-0.893c-14.784-7.217-26.749-18.681-34.211-32.713-1.962-3.689-3.492-7.701-4.677-12.754v0l-1.072-5.426-0.861-6.279-0.668-7.291-0.494-8.462-0.339-9.793-0.26-17.533-0.022-340.006 0.053-9.72 0.239-10.749 0.385-5.276c0.595-5.494 1.754-8.984 4.065-13.722v0l3.652-7.035c7.461-14.031 19.426-25.494 34.211-32.711v0l3.246-1.472 3.4-1.292 3.672-1.122 4.061-0.964 4.568-0.817 5.193-0.681 5.936-0.557 6.797-0.443 12.067-0.477 9.465-0.21 16.621-0.179 260.764 0.103 14.667 0.286 12.068 0.477 6.797 0.443 5.936 0.557 5.194 0.681 4.569 0.817 4.061 0.964 3.672 1.122 3.4 1.292 3.247 1.473c14.782 7.216 26.746 18.678 34.209 32.71v0l3.835 7.413c3.073 6.383 4.026 10.598 4.356 20.925v0l0.178 12.671 0.019 257.106c-0.477 1.136-0.834 2.126-1.167 3.173v0l-1.598 5.488-131.316 0.027-7.834 0.144-6.341 0.309-5.193 0.529c-3.945 0.548-7.053 1.385-10.221 2.655l-3.888 1.741c-9.862 4.814-17.934 12.549-23.035 22.136l-1.886 3.863c-1.65 3.772-2.624 7.437-3.194 12.507l-0.445 5.595-0.237 6.869-0.098 13.426-0.001 115.716-2.522 0.629c-0.332 0.076-0.666 0.15-1.003 0.221l-1.020 0.206-4.384 0.683-5.195 0.478-6.435 0.303-8.105 0.159-144.435 0.015zM582.613 310.728c10.851 0 19.648-8.78 19.648-19.61 0-9.928-7.392-18.132-16.982-19.431l-2.666-0.179h-196.48c-10.851 0-19.648 8.78-19.648 19.61 0 9.928 7.392 18.132 16.982 19.431l2.666 0.179h196.48zM648.107 436.23c10.851 0 19.648-8.78 19.648-19.61 0-9.928-7.392-18.132-16.982-19.431l-2.666-0.179h-261.973c-10.851 0-19.648 8.78-19.648 19.61 0 9.928 7.392 18.132 16.982 19.431l2.666 0.179h261.973zM602.276 689.408l0.053-102.714 0.13-5.115 0.205-3.582 0.284-2.365c0.054-0.31 0.112-0.583 0.173-0.824l0.413-1.13c1.185-2.227 3.131-4.092 5.592-5.293l1.223-0.443 1.831-0.35 2.703-0.265 3.838-0.188 8.46-0.153 102.911-0.008-122.269 117.264-5.547 5.165z" />
<glyph unicode="&#x1300b;" glyph-name="g12-gear" d="M512 755.2c19.465 0 38.134-7.733 51.893-21.495 13.764-13.764 21.498-32.431 21.498-51.895v0-2.258c0.016-4.176 1.253-8.256 3.565-11.745 2.307-3.484 5.583-6.218 9.635-7.956 3.918-1.729 8.263-2.245 12.476-1.481 4.214 0.764 8.104 2.773 11.003 5.608v0l1.542 1.541c6.816 6.826 14.911 12.24 23.821 15.932 8.909 3.694 18.459 5.595 28.103 5.595 9.646 0 19.197-1.901 28.106-5.595s17-9.105 23.804-15.915c6.821-6.816 12.233-14.909 15.926-23.817 3.693-8.909 5.595-18.46 5.595-28.104s-1.901-19.195-5.595-28.104c-3.693-8.908-9.105-17.002-15.928-23.819v0l-1.383-1.379c-2.995-3.063-5.005-6.954-5.77-11.169-0.764-4.212-0.249-8.558 1.48-12.476 0.401-0.909 0.737-1.842 1.008-2.793v0l0.431-2.088c1.172-1.943 2.507-3.544 4.052-4.928v0l2.468-1.907c3.485-2.308 7.566-3.546 11.663-3.561v0h4.415c19.464 0 38.132-7.733 51.896-21.497 13.762-13.762 21.495-32.43 21.495-51.893s-7.733-38.132-21.495-51.893c-13.764-13.764-32.432-21.497-51.896-21.497v0h-2.257c-4.175-0.016-8.255-1.253-11.744-3.565-3.485-2.308-6.219-5.584-7.956-9.635-1.729-3.919-2.246-8.265-1.483-12.475 0.765-4.215 2.774-8.105 5.617-11.012v0l5.455-5.772c5-5.847 9.057-12.455 12.011-19.584 3.694-8.909 5.595-18.459 5.595-28.103 0-9.646-1.901-19.197-5.595-28.106s-9.107-17.002-15.914-23.801c-6.814-6.822-14.909-12.235-23.819-15.929s-18.459-5.595-28.103-5.595c-9.646 0-19.197 1.901-28.106 5.595-8.906 3.692-16.998 9.104-23.81 15.92v0l-1.391 1.393c-3.061 2.994-6.95 5.003-11.164 5.768s-8.559 0.249-12.684-1.57c-3.845-1.649-7.122-4.383-9.428-7.866-2.309-3.486-3.548-7.571-3.565-11.666v0-4.415c0-19.465-7.731-38.133-21.497-51.898-13.764-13.76-32.432-21.492-51.894-21.492s-38.127 7.732-51.893 21.495c-13.764 13.764-21.497 32.432-21.497 51.896v0l0.006 1.839c-0.1 4.297-1.491 8.465-3.995 11.966-2.5 3.496-5.995 6.159-11.287 8.152-3.919 1.729-8.267 2.246-12.476 1.483-4.215-0.765-8.103-2.774-11.003-5.609v0l-1.542-1.541c-6.816-6.826-14.911-12.24-23.822-15.934s-18.46-5.594-28.104-5.594-19.195 1.901-28.104 5.594c-8.911 3.694-17.006 9.108-23.8 15.912-6.824 6.814-12.239 14.911-15.932 23.821-3.694 8.909-5.595 18.459-5.595 28.103 0 9.646 1.901 19.197 5.595 28.105s9.105 17.001 15.913 23.802v0l1.403 1.403c2.993 3.059 5.002 6.946 5.766 11.159 0.764 4.214 0.248 8.561-1.573 12.69-1.646 3.841-4.379 7.117-7.864 9.424-3.486 2.308-7.571 3.548-11.664 3.565v0h-4.417c-19.465 0-38.132 7.731-51.895 21.495s-21.495 32.432-21.495 51.896c0 19.463 7.732 38.129 21.495 51.893s32.431 21.498 51.895 21.498v0l1.84-0.006c4.298 0.1 8.467 1.491 11.964 3.993s6.162 5.998 8.154 11.29c1.729 3.918 2.245 8.264 1.481 12.478s-2.773 8.102-5.6 10.994v0l-1.552 1.551c-6.823 6.816-12.236 14.91-15.93 23.82s-5.594 18.46-5.594 28.104c0 9.644 1.901 19.195 5.594 28.104s9.106 17.004 15.913 23.803c6.816 6.824 14.911 12.237 23.819 15.93s18.46 5.595 28.104 5.595c9.644 0 19.195-1.901 28.103-5.594s17.004-9.106 23.812-15.922v0l1.39-1.392c3.062-2.995 6.95-5.004 11.164-5.768s8.559-0.248 12.477 1.481c0.909 0.401 1.842 0.738 2.793 1.008v0l2.089 0.458c1.944 1.144 3.544 2.479 4.928 4.024v0l1.907 2.468c2.308 3.484 3.546 7.566 3.561 11.662v0 4.417c0 19.464 7.733 38.132 21.496 51.893 13.761 13.764 32.43 21.497 51.895 21.497zM512 712.335c-8.096 0-15.86-3.216-21.584-8.941-5.726-5.725-8.942-13.489-8.942-21.584v0-4.497c-0.047-12.541-3.763-24.795-10.689-35.25-6.924-10.455-16.754-18.657-28.28-23.597-1.601-0.686-3.275-1.173-4.985-1.452l-1.297-0.156-0.696-0.3c-7.554-2.59-15.516-3.746-23.475-3.421l-3.41 0.23-5.437 0.748c-12.641 2.292-24.305 8.319-33.658 17.469v0l-1.567 1.567c-2.835 2.838-6.201 5.089-9.907 6.626s-7.678 2.327-11.689 2.327c-4.011 0-7.984-0.791-11.69-2.327-3.705-1.536-7.072-3.787-9.924-6.642-2.838-2.835-5.089-6.201-6.626-9.907s-2.327-7.678-2.327-11.689c0-4.011 0.791-7.983 2.327-11.689s3.788-7.073 6.633-9.915v0l1.727-1.728c8.984-9.184 15.010-20.849 17.302-33.49s0.745-25.679-3.935-36.177c-4.454-12.109-12.447-22.598-22.941-30.103s-23.005-11.681-36.402-11.987v0h-2.338c-8.095 0-15.859-3.217-21.584-8.942s-8.941-13.489-8.941-21.584c0-8.096 3.216-15.861 8.941-21.586 5.724-5.724 13.487-8.939 21.584-8.939v0h4.504c12.538-0.051 24.788-3.767 35.242-10.689 10.456-6.923 18.659-16.753 23.506-28.068 5.187-11.754 6.735-24.793 4.443-37.434s-8.32-24.306-17.46-33.647v0l-1.574-1.575c-2.84-2.837-5.092-6.204-6.628-9.91s-2.327-7.677-2.327-11.69c0-4.010 0.791-7.982 2.327-11.688s3.788-7.074 6.645-9.926c2.834-2.838 6.199-5.089 9.905-6.625s7.678-2.327 11.689-2.327c4.011 0 7.983 0.791 11.689 2.327s7.072 3.787 9.921 6.641v0l1.721 1.718c9.184 8.984 20.848 15.011 33.495 17.305 12.64 2.289 25.675 0.741 36.172-3.938 12.111-4.455 22.6-12.447 30.103-22.941 7.506-10.495 11.681-23.004 11.987-36.401v0-2.338c0-8.095 3.217-15.86 8.94-21.584 5.727-5.726 13.491-8.942 21.585-8.942s15.862 3.217 21.586 8.94c5.724 5.724 8.94 13.489 8.94 21.586v0 4.503c0.051 12.539 3.767 24.789 10.689 35.244s16.75 18.655 28.069 23.507c11.754 5.187 24.794 6.734 37.435 4.441 12.639-2.293 24.302-8.319 33.653-17.467v0l1.565-1.565c2.838-2.84 6.206-5.092 9.912-6.629s7.677-2.327 11.69-2.327c4.010 0 7.982 0.791 11.687 2.327 3.708 1.537 7.076 3.789 9.925 6.642 2.839 2.836 5.091 6.202 6.627 9.907s2.327 7.677 2.327 11.69c0 4.010-0.791 7.982-2.328 11.69-1.536 3.705-3.785 7.069-6.648 9.927v0l-1.707 1.712c-8.985 9.182-15.013 20.849-17.307 33.498-2.289 12.639-0.741 25.673 4.352 37.212 4.938 11.527 13.143 21.358 23.594 28.279 10.457 6.928 22.711 10.646 35.334 10.693v0h2.338c8.095 0 15.86 3.217 21.586 8.943 5.723 5.723 8.94 13.489 8.94 21.583s-3.217 15.86-8.94 21.583c-5.726 5.726-13.491 8.943-21.586 8.943v0h-4.496c-12.543 0.047-24.796 3.763-35.252 10.689-10.453 6.922-18.654 16.751-23.596 28.275-0.687 1.601-1.174 3.276-1.454 4.988l-0.155 1.247-0.301 0.749c-2.589 7.554-3.746 15.516-3.42 23.475l0.23 3.41 0.748 5.437c2.293 12.638 8.318 24.301 17.475 33.664v0l1.558 1.557c2.838 2.836 5.090 6.203 6.626 9.91s2.327 7.678 2.327 11.689c0 4.011-0.791 7.984-2.327 11.689s-3.788 7.074-6.639 9.923c-2.837 2.84-6.204 5.091-9.91 6.628s-7.677 2.327-11.69 2.327c-4.010 0-7.982-0.791-11.69-2.328-3.706-1.536-7.070-3.785-9.92-6.64v0l-1.719-1.716c-9.182-8.984-20.85-15.012-33.492-17.304s-25.677-0.745-37.219 4.351c-11.527 4.94-21.356 13.142-28.276 23.593-6.928 10.457-10.646 22.712-10.693 35.335v0 2.338c0 8.095-3.217 15.859-8.944 21.586-5.722 5.723-13.486 8.939-21.582 8.939zM512 555.163c59.186 0 107.163-47.977 107.163-107.163s-47.977-107.163-107.163-107.163c-59.186 0-107.163 47.977-107.163 107.163s47.977 107.163 107.163 107.163zM512 512.298c-35.512 0-64.298-28.786-64.298-64.298s28.786-64.298 64.298-64.298c35.512 0 64.298 28.786 64.298 64.298s-28.786 64.298-64.298 64.298z" />
<glyph unicode="&#x1300c;" glyph-name="g13-promotion" d="M798.72 192c11.311 0 20.48-9.169 20.48-20.48 0-10.503-7.906-19.159-18.092-20.342l-2.388-0.138h-573.44c-11.311 0-20.48 9.169-20.48 20.48 0 10.503 7.906 19.159 18.092 20.342l2.388 0.138h573.44zM798.72 273.92c11.311 0 20.48-9.169 20.48-20.48 0-10.503-7.906-19.159-18.092-20.342l-2.388-0.138h-573.44c-11.311 0-20.48 9.169-20.48 20.48 0 10.503 7.906 19.159 18.092 20.342l2.388 0.138h573.44zM389.12 523.776c90.529 0 163.84-75.406 163.84-167.936 0-11.311-9.169-20.48-20.48-20.48v0h-286.72c-11.311 0-20.48 9.169-20.48 20.48 0 92.53 73.311 167.936 163.84 167.936zM696.183 724.48l82.057-163.84-61.532 22.057 0.092-1.577v-204.8c0-11.311-9.169-20.48-20.48-20.48-10.503 0-19.159 7.906-20.342 18.092l-0.138 2.388v204.8c0 0.549 0.022 1.094 0.064 1.632l-61.504-22.112 81.783 163.84zM389.12 482.816c-60.129 0-110.452-44.889-120.893-104.142v0l-0.369-2.354h242.504l-0.349 2.354c-10.18 57.772-58.273 101.889-116.402 104.059v0zM389.12 744.96c51.105 0 92.16-42.228 92.16-94.208s-41.055-94.208-92.16-94.208c-51.105 0-92.16 42.228-92.16 94.208s41.055 94.208 92.16 94.208zM389.12 704c-28.221 0-51.2-23.636-51.2-53.248s22.979-53.248 51.2-53.248c28.221 0 51.2 23.635 51.2 53.248s-22.979 53.248-51.2 53.248z" />
<glyph unicode="&#x1300d;" glyph-name="g14-transfer" d="M222.871 267.294c9.267 0 16.905-6.976 17.949-15.963l0.122-2.107-0.004-46.717 59.509 59.495c7.057 7.057 18.499 7.057 25.556 0 6.514-6.514 7.015-16.764 1.503-23.853l-1.503-1.702-59.505-59.498 46.728-0.006c9.98 0 18.071-8.090 18.071-18.071 0-9.267-6.976-16.905-15.963-17.949l-2.107-0.122-90.851 0.007c-0.181 0.005-0.363 0.013-0.544 0.023l1.041-0.030c-0.75 0-1.49 0.046-2.216 0.135-0.138 0.018-0.275 0.036-0.411 0.056-0.348 0.049-0.693 0.11-1.035 0.18-0.197 0.042-0.398 0.087-0.599 0.135-0.074 0.016-0.144 0.034-0.215 0.052l-0.322 0.085c-0.797 0.219-1.572 0.491-2.32 0.812-0.073 0.031-0.142 0.061-0.211 0.092-0.012 0.006-0.029 0.013-0.047 0.021-0.429 0.192-0.846 0.399-1.254 0.621-0.018 0.008-0.034 0.017-0.051 0.026l-0.146 0.082c-0.27 0.151-0.536 0.31-0.797 0.474-0.121 0.076-0.244 0.156-0.366 0.237-0.149 0.097-0.296 0.198-0.443 0.302v0.002l-0.24 0.173c-0.046 0.034-0.092 0.067-0.137 0.101-0.139 0.104-0.281 0.213-0.42 0.324-0.086 0.067-0.173 0.138-0.259 0.209l-0.271 0.229c-0.074 0.063-0.147 0.127-0.22 0.192-0.138 0.123-0.276 0.249-0.412 0.377-0.127 0.12-0.257 0.246-0.386 0.374l-0.209 0.213c-0.159 0.165-0.315 0.332-0.468 0.503-0.13 0.145-0.258 0.292-0.384 0.442l1.062-1.157c-0.42 0.42-0.814 0.855-1.184 1.303-0.138 0.168-0.271 0.337-0.402 0.509-0.121 0.159-0.24 0.32-0.357 0.483-0.062 0.088-0.123 0.175-0.184 0.262-0.010 0.012-0.022 0.030-0.034 0.047l-0.286 0.435c-0.091 0.142-0.18 0.286-0.268 0.431l-0.166 0.282c-0.012 0.020-0.023 0.040-0.034 0.060-0.040 0.067-0.077 0.133-0.114 0.2l-0.124 0.23c-0.105 0.196-0.207 0.394-0.305 0.594-0.060 0.122-0.12 0.249-0.179 0.376-0.043 0.092-0.082 0.178-0.12 0.265l-0.056 0.13c-0.086 0.199-0.168 0.399-0.247 0.602-0.021 0.053-0.041 0.105-0.061 0.158l-0.052 0.139c-0.137 0.37-0.262 0.745-0.375 1.126-0.040 0.134-0.078 0.27-0.115 0.407-0.074 0.278-0.141 0.552-0.202 0.827-0.025 0.104-0.048 0.214-0.070 0.325l-0.104 0.561c-0.005 0.031-0.010 0.062-0.015 0.093l-0.041 0.271c-0.006 0.037-0.011 0.075-0.016 0.112-0.022 0.143-0.041 0.292-0.058 0.441l-0.029 0.262c-0.023 0.225-0.041 0.45-0.056 0.677-0.008 0.128-0.015 0.258-0.020 0.388-0.011 0.258-0.017 0.518-0.017 0.78v90.353c0 9.98 8.090 18.071 18.071 18.071zM801.129 267.294c9.267 0 16.905-6.976 17.949-15.963l0.122-2.107-0.002-90.106c0.001-0.082 0.002-0.165 0.002-0.247l-0.005-0.447c-0.005-0.222-0.015-0.445-0.029-0.667l0.034 1.113c0-0.715-0.042-1.42-0.122-2.113-0.018-0.149-0.037-0.296-0.058-0.442-0.012-0.095-0.026-0.19-0.041-0.285-0.010-0.061-0.020-0.122-0.030-0.182l-0.096-0.513c-0.034-0.173-0.071-0.345-0.111-0.517l-0.038-0.17c-0.057-0.238-0.119-0.475-0.185-0.71-0.212-0.748-0.471-1.478-0.774-2.185-0.019-0.045-0.037-0.087-0.055-0.128-0.157-0.358-0.326-0.712-0.506-1.059l-0.092-0.176c-0.028-0.052-0.055-0.103-0.083-0.155-0.050-0.095-0.1-0.185-0.151-0.274-0.118-0.206-0.239-0.409-0.364-0.61-0.133-0.213-0.224-0.353-0.316-0.492-0.076-0.116-0.156-0.233-0.237-0.349-0.077-0.107-0.151-0.21-0.226-0.313l-0.129-0.173c-0.070-0.094-0.142-0.187-0.214-0.279-0.163-0.208-0.278-0.35-0.397-0.491-0.107-0.126-0.211-0.246-0.315-0.365-0.076-0.085-0.153-0.171-0.232-0.257-0.229-0.249-0.465-0.491-0.707-0.726-0.15-0.145-0.307-0.293-0.467-0.438-0.167-0.151-0.338-0.301-0.513-0.447l-0.096-0.081c-0.168-0.138-0.307-0.248-0.447-0.357-0.128-0.1-0.261-0.2-0.395-0.298l-0.18-0.13c-0.083-0.060-0.167-0.118-0.252-0.177-0.198-0.137-0.329-0.224-0.461-0.31-0.086-0.053-0.173-0.108-0.26-0.163l-0.285-0.173c-0.083-0.049-0.165-0.098-0.249-0.145-0.146-0.086-0.294-0.167-0.442-0.247-0.077-0.040-0.158-0.083-0.239-0.125l-0.329-0.166c-0.143-0.070-0.286-0.139-0.431-0.205-0.132-0.061-0.259-0.118-0.386-0.172-0.181-0.078-0.364-0.154-0.549-0.226-0.122-0.048-0.245-0.095-0.369-0.14-0.174-0.064-0.35-0.126-0.528-0.185l-0.545-0.172c-0.112-0.033-0.225-0.066-0.337-0.097l-0.375-0.098c-0.072-0.018-0.145-0.036-0.217-0.054l-0.36-0.084c-0.241-0.053-0.484-0.101-0.728-0.143-0.123-0.022-0.246-0.042-0.37-0.061-0.043-0.005-0.081-0.011-0.118-0.017l-0.128-0.020c-0.141-0.020-0.283-0.038-0.425-0.054l-0.242-0.026c-0.235-0.024-0.471-0.044-0.708-0.059-0.159-0.010-0.32-0.018-0.481-0.024-0.101-0.004-0.204-0.007-0.306-0.009l-0.371-0.004h-90.353c-9.98 0-18.071 8.090-18.071 18.071 0 9.267 6.976 16.905 15.963 17.949l2.107 0.122 46.717 0.006-59.495 59.498c-7.057 7.057-7.057 18.499 0 25.556 6.514 6.514 16.764 7.015 23.853 1.503l1.702-1.503 59.498-59.495 0.006 46.717c0 9.98 8.090 18.071 18.071 18.071zM512 433.544c79.879 0 144.565-66.534 144.565-148.179 0-9.98-8.090-18.071-18.071-18.071v0h-252.988c-9.98 0-18.071 8.090-18.071 18.071 0 81.645 64.686 148.179 144.565 148.179zM512 397.402c-53.055 0-97.458-39.608-106.67-91.89v0l-0.326-2.077h213.974l-0.308 2.077c-8.982 50.975-51.417 89.902-102.708 91.816v0zM512 628.706c45.093 0 81.318-37.26 81.318-83.125s-36.225-83.125-81.318-83.125c-45.093 0-81.318 37.26-81.318 83.125s36.225 83.125 81.318 83.125zM512 592.565c-24.901 0-45.176-20.855-45.176-46.984s20.275-46.984 45.176-46.984c24.901 0 45.176 20.855 45.176 46.984s-20.275 46.984-45.176 46.984zM313.224 755.2c9.98 0 18.071-8.090 18.071-18.071 0-9.267-6.976-16.905-15.963-17.949l-2.107-0.122-46.728 0.004 59.505-59.509c7.057-7.057 7.057-18.499 0-25.556-6.514-6.514-16.764-7.015-23.853-1.503l-1.702 1.503-59.509 59.505 0.004-46.728c0-9.98-8.090-18.071-18.071-18.071-9.267 0-16.905 6.976-17.949 15.963l-0.122 2.107v90.353l0.003 0.303c0.005 0.27 0.015 0.541 0.032 0.81l-0.034-1.113c0 0.736 0.044 1.462 0.13 2.175 0.019 0.152 0.039 0.302 0.061 0.452 0.013 0.101 0.029 0.203 0.046 0.304 0.053 0.316 0.095 0.539 0.141 0.761 0.038 0.176 0.079 0.357 0.122 0.537 0.011 0.053 0.024 0.104 0.036 0.155 0.046 0.184 0.094 0.366 0.146 0.548 0.212 0.748 0.471 1.478 0.774 2.185 0.043 0.101 0.086 0.198 0.129 0.294 0.136 0.3 0.28 0.599 0.433 0.893l0.092 0.176c0.028 0.052 0.055 0.103 0.083 0.155 0.050 0.095 0.1 0.185 0.151 0.274 0.118 0.206 0.239 0.409 0.364 0.61 0.133 0.213 0.224 0.353 0.316 0.492 0.076 0.116 0.156 0.233 0.237 0.349 0.077 0.107 0.151 0.21 0.226 0.313l0.211 0.283c0.060 0.078 0.12 0.156 0.181 0.233l0.16 0.201c0.062 0.076 0.124 0.151 0.187 0.226 0.107 0.126 0.211 0.246 0.315 0.365 0.076 0.085 0.153 0.171 0.232 0.257 0.229 0.249 0.465 0.491 0.707 0.726 0.172 0.168 0.353 0.337 0.538 0.502 0.145 0.13 0.292 0.258 0.442 0.383l0.096 0.081c0.215 0.176 0.391 0.315 0.569 0.451 0.091 0.069 0.182 0.137 0.273 0.204l0.18 0.13c0.090 0.064 0.181 0.128 0.272 0.19 0.146 0.102 0.298 0.204 0.452 0.302 0.179 0.113 0.36 0.225 0.543 0.334 0.029 0.019 0.057 0.036 0.085 0.052 0.053 0.029 0.104 0.059 0.156 0.089 0.153 0.089 0.307 0.175 0.462 0.258 0.071 0.037 0.145 0.075 0.218 0.114l0.329 0.166c0.143 0.070 0.286 0.139 0.431 0.205 0.132 0.061 0.259 0.118 0.386 0.172 0.181 0.078 0.364 0.154 0.549 0.226 0.122 0.048 0.245 0.095 0.369 0.14 0.349 0.129 0.704 0.247 1.064 0.354 0.12 0.036 0.243 0.071 0.366 0.105 0.153 0.042 0.304 0.082 0.457 0.119 0.040 0.008 0.078 0.017 0.116 0.027l0.36 0.084c0.241 0.053 0.484 0.101 0.728 0.143 0.123 0.022 0.246 0.042 0.37 0.061 0.043 0.005 0.081 0.011 0.118 0.017l0.128 0.020c0.141 0.020 0.283 0.038 0.425 0.054l0.231 0.025c0.238 0.025 0.478 0.044 0.718 0.060 0.159 0.010 0.32 0.018 0.481 0.024 0.224 0.008 0.45 0.013 0.677 0.013h90.353zM809.434 753.183l0.206-0.108c0.031-0.017 0.062-0.033 0.093-0.050 0.030-0.015 0.054-0.028 0.077-0.041 0.362-0.202 0.655-0.375 0.943-0.557 0.121-0.076 0.244-0.156 0.366-0.237 0.043-0.027 0.086-0.056 0.13-0.085l0.213-0.148c0.161-0.112 0.32-0.227 0.477-0.345 0.139-0.104 0.281-0.213 0.42-0.324 0.086-0.067 0.173-0.138 0.259-0.209l0.122-0.102c0.125-0.105 0.248-0.211 0.369-0.319 0.138-0.123 0.276-0.249 0.412-0.377l-0.004 0.004 0.39-0.378c0.069-0.069 0.137-0.138 0.204-0.208 0.111-0.114 0.215-0.225 0.318-0.336 0.182-0.198 0.363-0.404 0.54-0.613l-1.062 1.157c0.42-0.42 0.814-0.855 1.184-1.303 0.119-0.145 0.234-0.291 0.348-0.438 0.14-0.181 0.277-0.366 0.411-0.554 0.058-0.081 0.114-0.162 0.17-0.242l0.048-0.067 0.233-0.353c0.121-0.186 0.238-0.374 0.352-0.565 0.058-0.098 0.115-0.194 0.171-0.292 0.040-0.067 0.077-0.133 0.114-0.2l0.068-0.126c0.122-0.223 0.239-0.449 0.351-0.678 0.063-0.129 0.127-0.262 0.189-0.397 0.043-0.092 0.082-0.178 0.12-0.265 0.122-0.28 0.215-0.504 0.304-0.731 0.021-0.053 0.041-0.105 0.061-0.158l0.052-0.139c0.137-0.37 0.262-0.745 0.375-1.126 0.040-0.134 0.078-0.27 0.115-0.407 0.074-0.278 0.141-0.552 0.202-0.827 0.025-0.104 0.048-0.214 0.070-0.325l0.082-0.437c0.022-0.123 0.042-0.246 0.061-0.37 0.007-0.056 0.015-0.108 0.023-0.159 0.025-0.166 0.048-0.339 0.068-0.512l0.029-0.262c0.062-0.607 0.093-1.222 0.093-1.845l-0.010-0.208 0.010-90.145c0-9.98-8.090-18.071-18.071-18.071-9.267 0-16.905 6.976-17.949 15.963l-0.122 2.107-0.006 46.728-59.498-59.505c-7.057-7.057-18.499-7.057-25.556 0-6.514 6.514-7.015 16.764-1.503 23.853l1.503 1.702 59.495 59.509-46.717-0.004c-9.98 0-18.071 8.090-18.071 18.071 0 9.267 6.976 16.905 15.963 17.949l2.107 0.122 90.656-0.003c0.26-0.004 0.52-0.014 0.78-0.030l-1.083 0.032c0.75 0 1.49-0.046 2.216-0.135 0.138-0.018 0.275-0.036 0.411-0.056 0.348-0.049 0.693-0.11 1.035-0.18 0.197-0.042 0.398-0.087 0.599-0.135 0.074-0.016 0.144-0.034 0.215-0.052l0.322-0.085c0.797-0.219 1.572-0.491 2.32-0.812 0.025-0.010 0.045-0.019 0.065-0.028l0.102-0.045c0.346-0.153 0.686-0.316 1.020-0.489z" />
<glyph unicode="&#x1300e;" glyph-name="g15-adjustment" d="M334.722 221.478l2.194-0.954 45.774-23.118c35.679-18.020 78.757-18.050 114.334-0.384l5.030 2.644c46.575 25.876 103.812 27.891 152.18 5.686l5.54-2.67 45.774-23.118c10.096-5.099 14.147-17.417 9.048-27.513-4.735-9.375-15.694-13.538-25.319-10.002l-2.194 0.954-45.774 23.118c-35.68 18.020-78.757 18.050-114.334 0.384l-5.030-2.644c-46.575-25.876-103.813-27.891-152.18-5.686l-5.54 2.67-45.774 23.118c-10.096 5.099-14.147 17.417-9.048 27.513 4.735 9.375 15.694 13.538 25.319 10.002zM334.722 303.398l2.194-0.954 45.774-23.118c35.679-18.020 78.757-18.050 114.334-0.384l5.030 2.644c46.575 25.876 103.812 27.891 152.18 5.686l5.54-2.67 45.774-23.118c10.096-5.099 14.147-17.417 9.048-27.513-4.735-9.375-15.694-13.538-25.319-10.002l-2.194 0.954-45.774 23.118c-35.68 18.020-78.757 18.050-114.334 0.384l-5.030-2.644c-46.575-25.876-103.813-27.891-152.18-5.686l-5.54 2.67-45.774 23.118c-10.096 5.099-14.147 17.417-9.048 27.513 4.735 9.375 15.694 13.538 25.319 10.002zM512 534.018c90.527 0 163.836-75.405 163.836-167.935 0-11.311-9.169-20.48-20.48-20.48v0h-286.714c-11.311 0-20.48 9.169-20.48 20.48 0 92.53 73.31 167.935 163.836 167.935zM512 493.058c-60.128 0-110.45-44.889-120.89-104.142v0l-0.369-2.354h242.498l-0.349 2.354c-10.179 57.771-58.271 101.888-116.4 104.058v0zM512 755.2c51.104 0 92.158-42.228 92.158-94.207s-41.054-94.207-92.158-94.207c-51.104 0-92.158 42.228-92.158 94.207s41.054 94.207 92.158 94.207zM512 714.24c-28.22 0-51.199-23.635-51.199-53.248s22.978-53.248 51.199-53.248c28.221 0 51.199 23.635 51.199 53.248s-22.978 53.248-51.199 53.248z" />
<glyph unicode="&#x1300f;" glyph-name="g16-retirement" d="M374.29 426.086c93.651 0 169.49-77.291 169.49-172.134 0-11.594-9.485-20.992-21.186-20.992v0h-296.607c-11.701 0-21.186 9.398-21.186 20.992 0 94.844 75.839 172.134 169.49 172.134zM713.269 610.816c58.522 0 105.931-46.974 105.931-104.96 0-23.636-7.877-45.443-21.173-62.984l-0.013-167.928c0-16.766-18.859-26.767-32.938-17.466v0l-51.807 34.218-51.807-34.218c-13.409-8.857-31.153-0.208-32.812 15.119v0l-0.126 2.348-0.005 167.918c-13.301 17.543-21.181 39.353-21.181 62.994 0 57.986 47.409 104.96 105.931 104.96zM374.29 384.102c-62.202 0-114.261-46.012-125.062-106.746v0l-0.382-2.412h250.866l-0.361 2.412c-10.531 59.216-60.282 104.436-120.416 106.66v0zM755.641 408.663l-3.226-1.173c-9.157-3.072-18.351-5.062-27.556-5.97-3.802-0.413-7.671-0.624-11.59-0.624-3.926 0-7.802 0.211-11.618 0.623-9.198 0.913-18.381 2.902-27.528 5.971v0l-3.226 1.173v-94.464l30.62 20.195c6.326 4.178 14.354 4.643 21.058 1.393v0l2.446-1.393 30.62-20.216v94.485zM713.269 568.832c-35.121 0-63.559-28.177-63.559-62.976 0-31.706 23.607-57.914 54.367-62.323l2.259-0.282c4.603-0.422 9.201-0.424 13.804-0.006 31.888 3.393 56.687 30.115 56.687 62.611 0 34.799-28.438 62.976-63.559 62.976zM374.29 652.8c52.867 0 95.338-43.284 95.338-96.563s-42.471-96.563-95.338-96.563c-52.867 0-95.338 43.284-95.338 96.563s42.471 96.563 95.338 96.563zM374.29 610.816c-29.194 0-52.966-24.226-52.966-54.579s23.771-54.579 52.966-54.579c29.194 0 52.966 24.226 52.966 54.579s-23.771 54.579-52.966 54.579z" />
<glyph unicode="&#x13010;" glyph-name="g17-resignation" d="M656.035 755.2c88.506 0 160.504-70.389 163.093-158.265l0.072-4.9v-239.683c0-10.565-8.565-19.13-19.13-19.13-9.81 0-17.896 7.385-19.001 16.899l-0.129 2.231v239.683c0 67.514-53.487 122.469-120.424 124.827l-4.482 0.079h-288.070c-67.514 0-122.469-53.488-124.827-120.424l-0.079-4.482v-288.070c0-69.014 55.891-124.905 124.906-124.905 10.565 0 19.13-8.565 19.13-19.13s-8.565-19.13-19.13-19.13c-88.506 0-160.504 70.389-163.093 158.265l-0.072 4.9v288.070c0 88.506 70.389 160.504 158.265 163.093l4.9 0.072h288.070zM562.595 271.852l1.655-1.744 25.369-30.297 25.374 30.297c6.782 8.101 18.847 9.17 26.948 2.388 7.478-6.26 8.964-17.022 3.814-25.012l-1.426-1.936-29.765-35.536 29.765-35.553c6.782-8.101 5.713-20.166-2.388-26.948-7.478-6.26-18.333-5.831-25.293 0.643l-1.655 1.744-25.384 30.304-25.359-30.304c-6.782-8.101-18.847-9.17-26.948-2.388-7.478 6.26-8.964 17.022-3.814 25.012l1.426 1.936 29.75 35.553-29.75 35.536c-6.782 8.101-5.713 20.166 2.388 26.948 7.478 6.26 18.333 5.831 25.293-0.643zM685.705 276.958c9.81 0 17.896-7.385 19.001-16.899l0.129-2.231v-95.648c0-10.565-8.565-19.13-19.13-19.13-9.81 0-17.896 7.385-19.001 16.899l-0.129 2.231v95.648c0 10.565 8.565 19.13 19.13 19.13zM501.532 276.958c10.565 0 19.13-8.565 19.13-19.13 0-9.81-7.385-17.896-16.899-19.001l-2.231-0.129-28.936 0.019v-8.624l19.488-0.003c10.565 0 19.13-8.565 19.13-19.13 0-9.81-7.385-17.896-16.899-19.001l-2.231-0.129-19.488 0.006v-10.508l28.936-0.019c9.81 0 17.896-7.385 19.001-16.899l0.129-2.231c0-9.81-7.385-17.896-16.899-19.001l-2.231-0.129h-48.046c-9.81 0-17.896 7.385-19.001 16.899l-0.129 2.231v95.648c0 9.81 7.385 17.896 16.899 19.001l2.231 0.129h48.046zM797.824 276.958c10.565 0 19.13-8.565 19.13-19.13 0-9.81-7.385-17.896-16.899-19.001l-2.231-0.129-12.908 0.006 0.007-76.525c0-10.565-8.565-19.13-19.13-19.13-9.81 0-17.896 7.385-19.001 16.899l-0.129 2.231-0.004 76.525-12.897-0.006c-10.565 0-19.13 8.565-19.13 19.13 0 9.81 7.385 17.896 16.899 19.001l2.231 0.129h64.062zM510.875 491.21c84.56 0 153.038-70.434 153.038-156.864 0-10.565-8.565-19.13-19.13-19.13v0h-267.816c-10.565 0-19.13 8.565-19.13 19.13 0 86.43 68.477 156.864 153.038 156.864zM510.875 452.951c-56.165 0-103.17-41.93-112.922-97.276v0l-0.345-2.179h226.515l-0.326 2.179c-9.508 53.963-54.43 95.171-108.727 97.198v0zM510.875 697.811c47.736 0 86.084-39.444 86.084-87.997s-38.348-87.997-86.084-87.997c-47.736 0-86.084 39.444-86.084 87.997s38.348 87.997 86.084 87.997zM510.875 659.552c-26.361 0-47.824-22.077-47.824-49.737s21.464-49.737 47.824-49.737c26.361 0 47.824 22.077 47.824 49.737s-21.464 49.737-47.824 49.737z" />
<glyph unicode="&#x13011;" glyph-name="g18-g-promotion" d="M674.040 431.119c80.168 0 145.16-64.991 145.16-145.159s-64.991-145.161-145.16-145.161c-80.17 0-145.162 64.991-145.162 145.161 0 80.168 64.992 145.159 145.162 145.159zM656.035 755.2c88.505 0 160.504-70.389 163.093-158.264l0.072-4.9v-144.033c0-10.565-8.565-19.13-19.13-19.13-9.81 0-17.896 7.385-19.001 16.899l-0.129 2.231v144.033c0 67.514-53.487 122.468-120.423 124.826l-4.482 0.079h-288.071c-67.514 0-122.469-53.487-124.827-120.423l-0.079-4.482v-288.067c0-67.514 53.488-122.47 120.424-124.827l4.482-0.079h144.036c10.565 0 19.13-8.565 19.13-19.13 0-9.81-7.385-17.896-16.899-19.001l-2.231-0.129h-144.036c-88.505 0-160.504 70.39-163.093 158.266l-0.072 4.9v288.067c0 88.505 70.389 160.503 158.265 163.092l4.9 0.072h288.071zM674.040 392.86c-59.040 0-106.902-47.862-106.902-106.9 0-59.040 47.862-106.902 106.902-106.902 59.039 0 106.9 47.862 106.9 106.902 0 59.038-47.862 106.9-106.9 106.9zM674.4 223.847c6.121 0 10.803-4.681 10.803-10.623 0-6.481-4.501-10.623-10.803-10.623h-0.18c-5.942 0-10.263 4.321-10.263 10.623 0 6.121 4.321 10.623 10.443 10.623zM674.22 369.321c14.584 0 20.706-3.6 20.706-11.342 0-2.742-3.107-26.387-6.452-51.054l-0.84-6.177c-3.646-26.759-7.292-52.775-7.292-52.775h-13.144c0 0-14.583 103.885-14.583 110.006 0 7.742 6.481 11.342 20.704 11.342h0.901zM493.994 521.162c10.565 0 19.13-8.565 19.13-19.13 0-9.81-7.385-17.896-16.899-19.001l-2.231-0.129h-144.035c-10.565 0-19.13 8.565-19.13 19.13 0 9.81 7.385 17.896 16.899 19.001l2.231 0.129h144.035zM584.016 646.065l53.293-126.389-34.173 14.545 0.010-32.175c0-10.565-8.565-19.13-19.13-19.13-9.81 0-17.896 7.385-19.001 16.899l-0.129 2.231-0.007 32.175-34.155-14.545 53.291 126.389zM493.994 593.159c10.565 0 19.13-8.565 19.13-19.13 0-9.81-7.385-17.896-16.899-19.001l-2.231-0.129h-144.035c-10.565 0-19.13 8.565-19.13 19.13 0 9.81 7.385 17.896 16.899 19.001l2.231 0.129h144.035z" />
<glyph unicode="&#x13012;" glyph-name="g19-g-assessment" d="M674.040 431.119c80.168 0 145.16-64.991 145.16-145.159s-64.991-145.161-145.16-145.161c-80.17 0-145.162 64.991-145.162 145.161 0 80.168 64.992 145.159 145.162 145.159zM656.035 755.2c88.505 0 160.504-70.389 163.093-158.264l0.072-4.9v-144.033c0-10.565-8.565-19.13-19.13-19.13-9.81 0-17.896 7.385-19.001 16.899l-0.129 2.231v144.033c0 67.514-53.487 122.468-120.423 124.826l-4.482 0.079h-288.071c-67.514 0-122.469-53.487-124.827-120.423l-0.079-4.482v-288.067c0-67.514 53.488-122.47 120.424-124.827l4.482-0.079h144.036c10.565 0 19.13-8.565 19.13-19.13 0-9.81-7.385-17.896-16.899-19.001l-2.231-0.129h-144.036c-88.505 0-160.504 70.39-163.093 158.266l-0.072 4.9v288.067c0 88.505 70.389 160.503 158.265 163.092l4.9 0.072h288.071zM674.040 392.86c-59.040 0-106.902-47.862-106.902-106.9 0-59.040 47.862-106.902 106.902-106.902 59.039 0 106.9 47.862 106.9 106.902 0 59.038-47.862 106.9-106.9 106.9zM674.4 223.847c6.121 0 10.803-4.681 10.803-10.623 0-6.481-4.501-10.623-10.803-10.623h-0.18c-5.942 0-10.263 4.321-10.263 10.623 0 6.121 4.321 10.623 10.443 10.623zM674.22 369.321c14.584 0 20.706-3.6 20.706-11.342 0-2.742-3.107-26.387-6.452-51.054l-0.84-6.177c-3.646-26.759-7.292-52.775-7.292-52.775h-13.144c0 0-14.583 103.885-14.583 110.006 0 7.742 6.481 11.342 20.704 11.342h0.901zM599.263 616.87c8.117-5.51 10.659-16.161 6.23-24.653l-1.146-1.918-48.695-71.736c-4.909-7.231-14.012-10.137-22.087-7.334l-2.173 0.907-33.047 16.226-63.93-104.675c-5.99-9.805-19.044-12.024-27.9-5.262l-1.829 1.587-32.349 31.756-35.806-52.763c-5.51-8.117-16.161-10.659-24.653-6.23l-1.918 1.146c-8.117 5.51-10.659 16.161-6.231 24.653l1.146 1.918 48.694 71.736c6.257 9.218 18.88 11.045 27.459 4.447l1.773-1.543 31.507-30.949 60.499 99.009c4.757 7.786 14.266 11.044 22.68 8.072l2.077-0.874 33.75-16.566 39.377 57.963c5.934 8.741 17.83 11.017 26.571 5.084z" />
<glyph unicode="&#x13013;" glyph-name="g20-g-inspection" d="M674.040 431.119c80.168 0 145.16-64.991 145.16-145.159s-64.991-145.161-145.16-145.161c-80.17 0-145.162 64.991-145.162 145.161 0 80.168 64.992 145.159 145.162 145.159zM656.035 755.2c88.505 0 160.504-70.389 163.093-158.264l0.072-4.9v-144.033c0-10.565-8.565-19.13-19.13-19.13-9.81 0-17.896 7.385-19.001 16.899l-0.129 2.231v144.033c0 67.514-53.487 122.468-120.423 124.826l-4.482 0.079h-288.071c-67.514 0-122.469-53.487-124.827-120.423l-0.079-4.482v-288.067c0-67.514 53.488-122.47 120.424-124.827l4.482-0.079h144.036c10.565 0 19.13-8.565 19.13-19.13 0-9.81-7.385-17.896-16.899-19.001l-2.231-0.129h-144.036c-88.505 0-160.504 70.39-163.093 158.266l-0.072 4.9v288.067c0 88.505 70.389 160.503 158.265 163.092l4.9 0.072h288.071zM674.040 392.86c-59.040 0-106.902-47.862-106.902-106.9 0-59.040 47.862-106.902 106.902-106.902 59.039 0 106.9 47.862 106.9 106.902 0 59.038-47.862 106.9-106.9 106.9zM674.4 223.847c6.121 0 10.803-4.681 10.803-10.623 0-6.481-4.501-10.623-10.803-10.623h-0.18c-5.942 0-10.263 4.321-10.263 10.623 0 6.121 4.321 10.623 10.443 10.623zM674.22 369.321c14.584 0 20.706-3.6 20.706-11.342 0-2.742-3.107-26.387-6.452-51.054l-0.84-6.177c-3.646-26.759-7.292-52.775-7.292-52.775h-13.144c0 0-14.583 103.885-14.583 110.006 0 7.742 6.481 11.342 20.704 11.342h0.901zM464.739 658.432c70.242 0 127.157-57.112 127.157-127.531s-56.915-127.529-127.157-127.529c-19.393 0-37.77 4.353-54.214 12.138-0.213-0.56-0.463-1.117-0.742-1.665l-1.127-1.929-72.018-108.401c-5.846-8.8-17.72-11.194-26.52-5.348-8.171 5.429-10.82 16.054-6.475 24.59l1.127 1.929 72.018 108.401c0.791 1.191 1.693 2.265 2.682 3.216-25.724 23.324-41.887 57.071-41.887 94.597 0 70.419 56.914 127.531 127.156 127.531zM464.739 620.172c-49.082 0-88.897-39.953-88.897-89.272s39.815-89.27 88.897-89.27 88.898 39.953 88.898 89.27c0 49.318-39.816 89.272-88.898 89.272z" />
<glyph unicode="&#x13014;" glyph-name="g21-g-evaluation" d="M656.028 755.2c88.504 0 160.501-70.389 163.090-158.264l0.072-4.9v-144.033c0-10.565-8.565-19.13-19.129-19.13-9.81 0-17.896 7.385-19.001 16.899l-0.129 2.231v144.033c0 67.514-53.486 122.468-120.422 124.826l-4.482 0.079h-288.066c-67.513 0-122.467-53.487-124.825-120.423l-0.079-4.482v-288.067c0-67.514 53.487-122.47 120.422-124.827l4.482-0.079h144.033c10.565 0 19.129-8.565 19.129-19.13 0-9.81-7.385-17.896-16.898-19.001l-2.231-0.129h-144.033c-88.504 0-160.501 70.39-163.090 158.266l-0.072 4.9v288.067c0 88.505 70.388 160.503 158.263 163.092l4.9 0.072h288.066zM674.041 431.119c80.169 0 145.159-64.991 145.159-145.159 0-80.17-64.99-145.161-145.159-145.161-80.167 0-145.158 64.991-145.158 145.161 0 80.168 64.99 145.159 145.158 145.159zM674.041 392.86c-59.037 0-106.899-47.862-106.899-106.9s47.861-106.902 106.899-106.902c59.039 0 106.901 47.862 106.901 106.902 0 59.038-47.862 106.9-106.901 106.9zM674.393 223.847c6.121 0 10.802-4.681 10.802-10.623 0-6.481-4.501-10.623-10.802-10.623h-0.18c-5.942 0-10.263 4.321-10.263 10.623 0 6.121 4.321 10.623 10.443 10.623zM674.213 369.321c14.584 0 20.706-3.6 20.706-11.342 0-5.942-14.584-110.006-14.584-110.006h-13.144c0 0-3.371 24.012-6.871 49.627l-0.841 6.167c-3.5 25.729-6.871 51.269-6.871 54.212 0 7.742 6.481 11.342 20.704 11.342h0.901zM450.958 595.289c49.214 0 89.271-38.843 89.271-87.145 0-24.673-10.568-47.504-28.227-63.608l-0.006-75.737c0-20.17-15.607-36.694-35.403-38.154l-2.855-0.105h-38.259c-20.17 0-36.693 15.607-38.154 35.404l-0.105 2.855-0.011 69.783c-22.044 16.186-35.52 41.7-35.52 69.563 0 48.302 40.057 87.145 89.27 87.145zM473.74 423.853c-7.343-1.886-14.985-2.855-22.783-2.855-5.246 0-10.422 0.439-15.479 1.298v-53.497h38.259zM450.958 557.030c-28.342 0-51.011-21.982-51.011-48.886 0-17.254 9.364-32.954 24.67-41.832 7.782-4.598 16.78-7.055 26.341-7.055 9.562 0 18.56 2.457 26.477 7.134 15.171 8.799 24.535 24.5 24.535 41.753 0 26.904-22.669 48.886-51.012 48.886zM581.223 527.214c10.565 0 19.129-8.565 19.129-19.13 0-9.81-7.385-17.896-16.898-19.001l-2.231-0.129h-20.040c-10.565 0-19.129 8.565-19.129 19.13 0 9.81 7.385 17.896 16.898 19.001l2.231 0.129h20.040zM340.742 527.214c10.565 0 19.129-8.565 19.129-19.13 0-9.81-7.385-17.896-16.898-19.001l-2.231-0.129h-20.040c-10.565 0-19.129 8.565-19.129 19.13 0 9.81 7.385 17.896 16.898 19.001l2.231 0.129h20.040zM564.898 618.619c6.789-7.001 7.153-17.859 1.203-25.273l-1.619-1.777-20.040-19.433c-7.584-7.355-19.695-7.169-27.050 0.416-6.789 7.001-7.153 17.859-1.203 25.273l1.619 1.777 20.040 19.433c7.584 7.355 19.695 7.169 27.050-0.416zM362.25 620.599l1.826-1.563 20.040-19.433c7.584-7.355 7.771-19.465 0.416-27.050-6.789-7.001-17.63-7.698-25.223-1.98l-1.826 1.563-20.040 19.433c-7.584 7.355-7.771 19.465-0.416 27.050 6.789 7.001 17.63 7.698 25.223 1.98zM450.27 677.557c9.808 0.203 18.044-7.013 19.346-16.502l0.175-2.228 0.603-29.15c0.218-10.563-8.167-19.302-18.73-19.521-9.808-0.203-18.044 7.013-19.346 16.502l-0.175 2.228-0.603 29.15c-0.218 10.563 8.167 19.302 18.73 19.521z" />
<glyph unicode="&#x13015;" glyph-name="g22-g-performance" d="M674.040 431.119c80.168 0 145.16-64.991 145.16-145.159s-64.991-145.161-145.16-145.161c-80.17 0-145.162 64.991-145.162 145.161 0 80.168 64.992 145.159 145.162 145.159zM656.035 755.2c88.505 0 160.504-70.389 163.093-158.264l0.072-4.9v-144.033c0-10.565-8.565-19.13-19.13-19.13-9.81 0-17.896 7.385-19.001 16.899l-0.129 2.231v144.033c0 67.514-53.487 122.468-120.423 124.826l-4.482 0.079h-288.071c-67.514 0-122.469-53.487-124.827-120.423l-0.079-4.482v-288.067c0-67.514 53.488-122.47 120.424-124.827l4.482-0.079h144.036c10.565 0 19.13-8.565 19.13-19.13 0-9.81-7.385-17.896-16.899-19.001l-2.231-0.129h-144.036c-88.505 0-160.504 70.39-163.093 158.266l-0.072 4.9v288.067c0 88.505 70.389 160.503 158.265 163.092l4.9 0.072h288.071zM674.040 392.86c-59.040 0-106.902-47.862-106.902-106.9 0-59.040 47.862-106.902 106.902-106.902 59.039 0 106.9 47.862 106.9 106.902 0 59.038-47.862 106.9-106.9 106.9zM674.4 223.847c6.121 0 10.803-4.681 10.803-10.623 0-6.481-4.501-10.623-10.803-10.623h-0.18c-5.942 0-10.263 4.321-10.263 10.623 0 6.121 4.321 10.623 10.443 10.623zM674.22 369.321c14.584 0 20.706-3.6 20.706-11.342 0-2.742-3.107-26.387-6.452-51.054l-0.84-6.177c-3.646-26.759-7.292-52.775-7.292-52.775h-13.144c0 0-14.583 103.885-14.583 110.006 0 7.742 6.481 11.342 20.704 11.342h0.901zM492.869 467.136c10.565 0 19.13-8.565 19.13-19.13 0-9.81-7.385-17.896-16.899-19.001l-2.231-0.129h-121.735c-10.565 0-19.13 8.565-19.13 19.13 0 9.81 7.385 17.896 16.899 19.001l2.231 0.129h121.735zM318.965 466.015c9.565 0 17.391-8.101 17.391-18.005 0-9.901-7.826-18.003-17.391-18.003s-17.391 8.101-17.391 18.003c0 9.903 7.826 18.005 17.391 18.005zM620.466 620.172c38.612 0 70.206-30.397 70.206-68.271 0-7.121-1.117-13.978-3.188-20.419l45.286-29.102c8.888-5.711 11.463-17.547 5.752-26.435-5.303-8.253-15.887-11.063-24.488-6.85l-1.946 1.098-46.177 29.666c-12.269-10.134-28.153-16.229-45.445-16.229-38.612 0-70.206 30.397-70.206 68.271s31.594 68.271 70.206 68.271zM492.869 539.134c10.565 0 19.13-8.565 19.13-19.13 0-9.81-7.385-17.896-16.899-19.001l-2.231-0.129h-121.735c-10.565 0-19.13 8.565-19.13 19.13 0 9.81 7.385 17.896 16.899 19.001l2.231 0.129h121.735zM318.965 538.013c9.565 0 17.391-8.103 17.391-18.005s-7.826-18.005-17.391-18.005c-9.565 0-17.391 8.103-17.391 18.005s7.826 18.005 17.391 18.005zM620.466 581.913c-17.805 0-31.947-13.606-31.947-30.012s14.141-30.012 31.947-30.012c17.806 0 31.947 13.605 31.947 30.012s-14.141 30.012-31.947 30.012zM492.869 611.168c10.565 0 19.13-8.565 19.13-19.13 0-9.81-7.385-17.896-16.899-19.001l-2.231-0.129h-121.735c-10.565 0-19.13 8.565-19.13 19.13 0 9.81 7.385 17.896 16.899 19.001l2.231 0.129h121.735zM318.965 610.047c9.565 0 17.391-8.102 17.391-18.004s-7.826-18.004-17.391-18.004c-9.565 0-17.391 8.102-17.391 18.004s7.826 18.004 17.391 18.004z" />
<glyph unicode="&#x13016;" glyph-name="g23-g-attention" d="M656.028 755.2c88.504 0 160.501-70.389 163.090-158.264l0.072-4.9v-144.033c0-10.565-8.565-19.13-19.129-19.13-9.81 0-17.896 7.385-19.001 16.899l-0.129 2.231v144.033c0 67.514-53.486 122.468-120.422 124.826l-4.482 0.079h-288.066c-67.513 0-122.467-53.487-124.825-120.423l-0.079-4.482v-288.067c0-67.514 53.487-122.47 120.422-124.827l4.482-0.079h144.033c10.565 0 19.129-8.565 19.129-19.13 0-9.81-7.385-17.896-16.898-19.001l-2.231-0.129h-144.033c-88.504 0-160.501 70.39-163.090 158.266l-0.072 4.9v288.067c0 88.505 70.388 160.503 158.263 163.092l4.9 0.072h288.066zM674.041 431.119c80.169 0 145.159-64.991 145.159-145.159 0-80.17-64.99-145.161-145.159-145.161-80.167 0-145.158 64.991-145.158 145.161 0 80.168 64.99 145.159 145.158 145.159zM674.041 392.86c-59.037 0-106.899-47.862-106.899-106.9s47.861-106.902 106.899-106.902c59.039 0 106.901 47.862 106.901 106.902 0 59.038-47.862 106.9-106.901 106.9zM674.393 223.847c6.121 0 10.802-4.681 10.802-10.623 0-6.481-4.501-10.623-10.802-10.623h-0.18c-5.942 0-10.263 4.321-10.263 10.623 0 6.121 4.321 10.623 10.443 10.623zM674.213 369.321c14.584 0 20.706-3.6 20.706-11.342 0-5.942-14.584-110.006-14.584-110.006h-13.144c0 0-3.371 24.012-6.871 49.627l-0.841 6.167c-3.5 25.729-6.871 51.269-6.871 54.212 0 7.742 6.481 11.342 20.704 11.342h0.901zM445.265 624.955l4.112-0.102c53.167-2.442 95.045-48.254 95.045-103.972v0l-0.008-52.106-0.13-6.448-0.11-7.976 1.278-0.179c11.104-2.063 19.761-10.517 22.617-21.243v0l0.305-1.418 0.524-1.8c0.159-0.694 0.281-1.405 0.363-2.132v0l0.124-2.227c0-16.312-12.908-29.949-29.371-29.949v0l-35.443-0.007c-35.253-37.316-83.801-37.316-119.054 0l-35.443 0.007c-16.463 0-29.371 13.638-29.371 29.949 0 14.345 10.075 26.469 23.664 28.986v0l1.226 0.186-0.203 12.578-0.032 53.136c0 57.271 44.808 104.919 99.908 104.719v0zM445.126 586.696l-3.315-0.087c-31.87-1.796-58.194-30.969-58.194-66.373v0l0.004-50.704 0.254-13.014c0.076-9.277-0.488-13.701-2.756-19.756-0.351-0.938-0.736-1.845-1.154-2.721v0l-0.227-0.37h130.175l-1.253 2.929c-2.016 5.382-2.686 9.476-2.756 16.834v0l0.048 6.202 0.193 8.502 0.018 52.742c0 36.529-27.495 65.693-61.037 65.815v0zM517.951 655.319c44.352-21.509 73.296-61.399 75.24-106.367l0.104-4.837v-2.852c0-10.565-8.565-19.13-19.129-19.13-9.81 0-17.896 7.385-19.001 16.899l-0.129 2.231v2.852c0 31.451-20.409 60.596-53.779 76.779-9.506 4.61-13.475 16.053-8.865 25.559s16.053 13.475 25.559 8.865zM397.693 646.453c4.61-9.506 0.641-20.949-8.865-25.559-31.98-15.508-52.056-42.921-53.673-72.86l-0.106-3.919v-2.852c0-10.565-8.565-19.13-19.129-19.13-9.81 0-17.896 7.385-19.001 16.899l-0.129 2.231v2.852c0 46.932 29.408 88.927 75.344 111.203 9.506 4.61 20.949 0.641 25.559-8.865z" />
<glyph unicode="&#x13017;" glyph-name="g24-veto" d="M674.040 431.119c80.168 0 145.16-64.991 145.16-145.159s-64.991-145.161-145.16-145.161c-80.17 0-145.162 64.991-145.162 145.161 0 80.168 64.992 145.159 145.162 145.159zM656.035 755.2c88.505 0 160.504-70.389 163.093-158.264l0.072-4.9v-144.033c0-10.565-8.565-19.13-19.13-19.13-9.81 0-17.896 7.385-19.001 16.899l-0.129 2.231v144.033c0 67.514-53.487 122.468-120.423 124.826l-4.482 0.079h-288.071c-67.514 0-122.469-53.487-124.827-120.423l-0.079-4.482v-288.067c0-67.514 53.488-122.47 120.424-124.827l4.482-0.079h144.036c10.565 0 19.13-8.565 19.13-19.13 0-9.81-7.385-17.896-16.899-19.001l-2.231-0.129h-144.036c-88.505 0-160.504 70.39-163.093 158.266l-0.072 4.9v288.067c0 88.505 70.389 160.503 158.265 163.092l4.9 0.072h288.071zM674.040 392.86c-59.040 0-106.902-47.862-106.902-106.9 0-59.040 47.862-106.902 106.902-106.902 59.039 0 106.9 47.862 106.9 106.902 0 59.038-47.862 106.9-106.9 106.9zM674.4 223.847c6.121 0 10.803-4.681 10.803-10.623 0-6.481-4.501-10.623-10.803-10.623h-0.18c-5.942 0-10.263 4.321-10.263 10.623 0 6.121 4.321 10.623 10.443 10.623zM674.22 369.321c14.584 0 20.706-3.6 20.706-11.342 0-2.742-3.107-26.387-6.452-51.054l-0.84-6.177c-3.646-26.759-7.292-52.775-7.292-52.775h-13.144c0 0-14.583 103.885-14.583 110.006 0 7.742 6.481 11.342 20.704 11.342h0.901zM381.661 642.61c8.594 19.303 31.21 27.984 50.513 19.39v0l174.758-77.807c19.303-8.594 27.985-31.21 19.39-50.513v0l-29.77-66.864c-8.594-19.303-31.21-27.984-50.513-19.39v0l-41.515 18.483-69.782-156.739c-10.966-24.632-39.327-36.087-64.176-26.339l-2.121 0.888c-25.336 11.279-36.73 40.963-25.45 66.299v0l69.779 156.739-41.493 18.477c-18.681 8.317-27.413 29.765-20.168 48.635l0.778 1.878zM445.681 486.641l-67.734-152.184c-2.686-6.033 0.027-13.101 6.059-15.786s13.099 0.027 15.785 6.060v0l67.736 152.192-21.846 9.718zM582.636 553.134l-29.768-66.867 8.733-3.889 29.77 66.864-8.735 3.893zM460.298 607.601l-29.778-66.867 87.388-38.902 29.778 66.867-87.388 38.902zM416.612 627.049l-29.77-66.864 8.739-3.887 29.757 66.867-8.727 3.883z" />
<glyph unicode="&#x13018;" glyph-name="g25-certificate" d="M656.035 755.2c88.505 0 160.504-70.389 163.093-158.265l0.072-4.9v-144.034c0-10.565-8.565-19.13-19.13-19.13-9.81 0-17.896 7.385-19.001 16.899l-0.129 2.231v144.034c0 67.514-53.487 122.469-120.423 124.827l-4.482 0.079h-288.071c-67.514 0-122.469-53.487-124.827-120.423l-0.079-4.482v-288.069c0-67.514 53.488-122.471 120.424-124.828l4.482-0.079h144.036c10.565 0 19.13-8.565 19.13-19.13 0-9.81-7.385-17.896-16.899-19.001l-2.231-0.129h-144.036c-88.505 0-160.504 70.391-163.093 158.267l-0.072 4.9v288.069c0 88.505 70.389 160.504 158.265 163.093l4.9 0.072h288.071zM674.038 458.13c50.355 0 91.147-40.792 91.147-91.147 0-20.397-6.693-39.225-18.004-54.408l-0.001-143.641c0-15.279-17.028-24.392-29.741-15.917v0l-43.408 28.944-43.395-28.944c-12.107-8.072-28.129-0.19-29.628 13.777v0l-0.114 2.14-0.001 143.641c-11.311 15.183-18.004 34.011-18.004 54.408 0 50.355 40.792 91.147 91.147 91.147zM708.905 282.009l-1.267-0.467c-7.573-2.562-15.176-4.255-22.79-5.077-3.547-0.414-7.153-0.629-10.81-0.629s-7.263 0.215-10.808 0.633c-7.616 0.818-15.22 2.511-22.793 5.073v0l-1.299 0.467v-77.322l24.287 16.173c5.712 3.808 12.961 4.231 19.014 1.269v0l2.209-1.269 24.255-16.154v77.303zM674.038 419.871c-29.225 0-52.888-23.663-52.888-52.888 0-27.313 20.668-49.768 47.229-52.589 3.775-0.339 7.543-0.339 11.315 0.002 26.563 2.819 47.232 25.274 47.232 52.587 0 29.225-23.663 52.888-52.888 52.888zM530.003 503.152c10.565 0 19.13-8.565 19.13-19.13 0-9.81-7.385-17.896-16.899-19.001l-2.231-0.129h-180.045c-10.565 0-19.13 8.565-19.13 19.13 0 9.81 7.385 17.896 16.899 19.001l2.231 0.129h180.045zM566.011 575.15c10.565 0 19.13-8.565 19.13-19.13 0-9.81-7.385-17.896-16.899-19.001l-2.231-0.129h-216.052c-10.565 0-19.13 8.565-19.13 19.13 0 9.81 7.385 17.896 16.899 19.001l2.231 0.129h216.052z" />
<glyph unicode="&#x13019;" glyph-name="g26-others" d="M656 755.2c90.165 0 163.2-73.036 163.2-163.2v0-288c0-90.165-73.035-163.2-163.2-163.2v0h-288c-90.164 0-163.2 73.035-163.2 163.2v0 288c0 90.164 73.036 163.2 163.2 163.2v0zM656 716.8h-288c-68.956 0-124.8-55.844-124.8-124.8v0-288c0-68.957 55.844-124.8 124.8-124.8v0h288c68.957 0 124.8 55.843 124.8 124.8v0 288c0 68.956-55.843 124.8-124.8 124.8v0zM358.4 505.6c31.812 0 57.6-25.788 57.6-57.6s-25.788-57.6-57.6-57.6c-31.812 0-57.6 25.788-57.6 57.6s25.788 57.6 57.6 57.6zM512 505.6c31.812 0 57.6-25.788 57.6-57.6s-25.788-57.6-57.6-57.6c-31.812 0-57.6 25.788-57.6 57.6s25.788 57.6 57.6 57.6zM665.6 505.6c31.812 0 57.6-25.788 57.6-57.6s-25.788-57.6-57.6-57.6c-31.812 0-57.6 25.788-57.6 57.6s25.788 57.6 57.6 57.6zM358.4 467.2c-10.604 0-19.2-8.596-19.2-19.2s8.596-19.2 19.2-19.2c10.604 0 19.2 8.596 19.2 19.2s-8.596 19.2-19.2 19.2zM512 467.2c-10.604 0-19.2-8.596-19.2-19.2s8.596-19.2 19.2-19.2c10.604 0 19.2 8.596 19.2 19.2s-8.596 19.2-19.2 19.2zM665.6 467.2c-10.604 0-19.2-8.596-19.2-19.2s8.596-19.2 19.2-19.2c10.604 0 19.2 8.596 19.2 19.2s-8.596 19.2-19.2 19.2z" />
<glyph unicode="&#x1301a;" glyph-name="g27-upload" d="M775.314 228.571c24.237 0 43.886-19.648 43.886-43.886 0-22.506-16.942-41.055-38.768-43.59l-5.118-0.295h-526.629c-24.237 0-43.886 19.648-43.886 43.886 0 22.506 16.942 41.055 38.768 43.59l5.118 0.295h526.629zM512.192 755.2l0.571-0.007c0.349-0.006 0.697-0.016 1.045-0.031 0.411-0.015 0.824-0.038 1.237-0.066 0.207-0.016 0.411-0.032 0.616-0.049l0.388-0.031c0.14-0.013 0.28-0.026 0.419-0.040 0.005-0.001 0.008-0.001 0.012-0.001 0.283-0.029 0.516-0.055 0.748-0.082 0.199-0.028 0.397-0.053 0.594-0.079l0.243-0.029c0.16-0.022 0.321-0.045 0.481-0.069 0.341-0.052 0.675-0.106 1.009-0.164 0.137-0.028 0.277-0.053 0.416-0.079 0.28-0.046 0.471-0.083 0.661-0.121 0.27-0.055 0.547-0.113 0.823-0.174 0.218-0.053 0.433-0.102 0.647-0.152l0.255-0.055c0.116-0.028 0.232-0.057 0.348-0.086 0.271-0.069 0.544-0.141 0.817-0.215 0.235-0.069 0.463-0.132 0.69-0.198l0.099-0.023c0.14-0.041 0.28-0.082 0.42-0.125 0.065-0.021 0.133-0.041 0.201-0.062l0.458-0.143c0.46-0.147 0.916-0.302 1.37-0.464 0.080-0.029 0.159-0.057 0.237-0.086l0.513-0.19c0.232-0.088 0.463-0.177 0.693-0.269 0.128-0.053 0.258-0.105 0.388-0.158 0.15-0.059 0.296-0.12 0.442-0.181l0.662-0.286c0.157-0.069 0.313-0.139 0.469-0.21 0.137-0.062 0.277-0.126 0.417-0.191 0.38-0.177 0.759-0.362 1.137-0.551 0.333-0.166 0.663-0.338 0.992-0.513 0.099-0.055 0.197-0.108 0.295-0.162l0.476-0.266c0.208-0.117 0.415-0.236 0.621-0.356 0.154-0.084 0.304-0.173 0.454-0.263 0.126-0.080 0.251-0.156 0.376-0.233l0.341-0.213c0.185-0.116 0.369-0.233 0.551-0.351 0.283-0.176 0.563-0.362 0.842-0.551 0.048-0.039 0.098-0.074 0.149-0.108 0.29-0.201 0.501-0.349 0.711-0.499 0.37-0.257 0.736-0.528 1.098-0.805 0.248-0.197 0.491-0.387 0.731-0.579 0.275-0.213 0.552-0.439 0.826-0.669 0.275-0.236 0.544-0.468 0.811-0.703 0.008-0.002 0.018-0.011 0.028-0.020l0.136-0.127 175.543-156.038c18.115-16.102 19.747-43.841 3.644-61.957-14.864-16.722-39.643-19.398-57.615-7.046l-4.342 3.402-102.508 91.126 0.007-253.373c0-24.237-19.648-43.886-43.886-43.886-22.506 0-41.055 16.942-43.59 38.768l-0.295 5.118-0.003 253.363-102.498-91.116c-18.115-16.102-45.854-14.471-61.957 3.644-14.864 16.722-14.617 41.644-0.243 58.044l3.887 3.913 176.004 156.449c0.379 0.328 0.763 0.649 1.15 0.963l-1.612-1.373c0.73 0.649 1.477 1.27 2.237 1.861 0.003 0.010 0.010 0.016 0.017 0.021 0.164 0.12 0.326 0.244 0.489 0.367 0.216 0.171 0.438 0.335 0.66 0.497 0.073 0.045 0.145 0.098 0.218 0.15l0.235 0.167c0.194 0.137 0.389 0.273 0.585 0.407 0.282 0.2 0.569 0.391 0.857 0.578 0.073 0.042 0.142 0.086 0.212 0.131l0.152 0.096c0.166 0.105 0.333 0.21 0.5 0.313 0.392 0.248 0.791 0.485 1.193 0.715 0.030 0.014 0.061 0.031 0.092 0.049l0.135 0.075c0.212 0.12 0.425 0.238 0.64 0.355 0.133 0.076 0.264 0.146 0.395 0.216l0.282 0.145c0.42 0.219 0.844 0.431 1.272 0.637 0.136 0.066 0.267 0.128 0.398 0.19l0.303 0.14c0.147 0.067 0.295 0.134 0.442 0.2 0.286 0.128 0.576 0.253 0.867 0.375 0.124 0.050 0.251 0.102 0.378 0.154 0.279 0.115 0.484 0.197 0.69 0.277 0.327 0.127 0.654 0.25 0.982 0.368 0.118 0.039 0.235 0.081 0.352 0.122l0.152 0.057c0.17 0.059 0.34 0.117 0.511 0.174 0.11 0.036 0.223 0.073 0.336 0.11l0.522 0.167c0.374 0.116 0.749 0.228 1.127 0.334 0.151 0.041 0.305 0.084 0.459 0.125l0.367 0.099c0.488 0.127 0.979 0.246 1.474 0.357 0.097 0.020 0.193 0.041 0.289 0.062l0.223 0.049c0.375 0.079 0.751 0.153 1.129 0.223l0.232 0.041c0.188 0.034 0.376 0.066 0.564 0.097l0.218 0.036c0.505 0.081 1.013 0.153 1.524 0.216 0.138 0.017 0.278 0.033 0.419 0.049l0.543 0.059c0.126 0.013 0.252 0.025 0.379 0.037l0.002-0.003c0.229 0.024 0.46 0.044 0.692 0.061 0.185 0.014 0.369 0.028 0.554 0.039l0.288 0.017c0.341 0.020 0.683 0.035 1.026 0.047 0.406 0.015 0.813 0.023 1.22 0.026l0.516 0.001z" />
<glyph unicode="&#x1301b;" glyph-name="g28-download" d="M775.314 228.571c24.237 0 43.886-19.648 43.886-43.886 0-22.506-16.942-41.055-38.768-43.59l-5.118-0.295h-526.629c-24.237 0-43.886 19.648-43.886 43.886 0 22.506 16.942 41.055 38.768 43.59l5.118 0.295h526.629zM512 755.2c22.506 0 41.055-16.942 43.59-38.768l0.295-5.118-0.007-253.351 102.508 91.104c18.115 16.103 45.854 14.471 61.957-3.644 14.864-16.722 14.617-41.643 0.243-58.044l-3.887-3.913-175.789-156.263c-0.449-0.394-0.904-0.777-1.365-1.15l-0.171-0.129-0.403-0.319c-0.185-0.144-0.371-0.287-0.558-0.428-0.216-0.171-0.438-0.335-0.661-0.497-0.072-0.045-0.145-0.097-0.217-0.149l-0.215-0.153c-0.171-0.121-0.342-0.24-0.515-0.359-0.311-0.221-0.628-0.433-0.949-0.64-0.073-0.041-0.142-0.086-0.211-0.13l-0.183-0.115c-0.156-0.099-0.312-0.196-0.469-0.293-0.309-0.197-0.623-0.385-0.939-0.568-0.289-0.164-0.575-0.327-0.862-0.485-0.213-0.12-0.433-0.239-0.653-0.356l-0.416-0.215c-0.275-0.142-0.552-0.281-0.83-0.418-0.236-0.117-0.471-0.229-0.706-0.339l-0.282-0.13c-0.79-0.363-1.593-0.704-2.408-1.020-0.081-0.032-0.16-0.062-0.239-0.092l-0.557-0.208c-0.428-0.157-0.858-0.307-1.292-0.451-0.076-0.025-0.155-0.050-0.234-0.076l-0.615-0.196c-0.35-0.108-0.702-0.212-1.055-0.311-0.144-0.039-0.291-0.080-0.439-0.12l-0.367-0.099c-0.488-0.127-0.979-0.246-1.474-0.357-0.097-0.020-0.193-0.041-0.289-0.062l-0.223-0.049c-0.226-0.048-0.452-0.094-0.679-0.138-0.227-0.038-0.456-0.081-0.684-0.122-0.185-0.038-0.373-0.070-0.561-0.101l-0.219-0.037c-0.505-0.081-1.013-0.153-1.524-0.216-0.138-0.017-0.278-0.033-0.418-0.049l-0.543-0.059c-0.126-0.013-0.252-0.025-0.379-0.037l-0.002 0.003c-0.229-0.024-0.46-0.044-0.692-0.061-0.185-0.014-0.369-0.028-0.553-0.039l-0.288-0.017c-0.5-0.029-1.003-0.049-1.508-0.061-0.211-0.006-0.423-0.009-0.635-0.011-0.144-0.001-0.285-0.001-0.426-0.001h-0.193l-0.555 0.022-0.549-0.003c-0.065 0.002-0.13 0.004-0.195 0.006l-0.209 0.018-0.465 0.010c-0.034 0.002-0.069 0.003-0.103 0.005-0.022 0.001-0.046 0.002-0.070 0.003l-0.935 0.061c-0.222 0.017-0.444 0.035-0.666 0.055-0.465 0.039-0.93 0.088-1.395 0.144-0.162 0.023-0.326 0.044-0.489 0.066l-0.244 0.029c-0.164 0.023-0.328 0.046-0.491 0.071-0.024 0.004-0.041 0.007-0.058 0.010l-0.531 0.083c-0.113 0.019-0.227 0.038-0.34 0.057-0.16 0.033-0.323 0.062-0.486 0.092l-0.099 0.012c-0.195 0.036-0.389 0.074-0.583 0.113-0.024 0.006-0.054 0.012-0.085 0.018l-0.428 0.087c-0.531 0.113-1.058 0.235-1.581 0.367-0.36 0.092-0.722 0.188-1.084 0.289-0.131 0.041-0.257 0.077-0.383 0.113-0.22 0.058-0.4 0.112-0.581 0.166-0.044 0.014-0.092 0.029-0.139 0.044l-0.396 0.123-0.969 0.326-0.133 0.042c-0.079 0.027-0.158 0.055-0.236 0.083-0.112 0.040-0.221 0.079-0.33 0.119l-0.595 0.221c-0.181 0.069-0.361 0.138-0.54 0.209-0.173 0.070-0.347 0.14-0.521 0.212-0.129 0.051-0.255 0.103-0.38 0.156l-0.733 0.318c-0.181 0.080-0.361 0.161-0.54 0.244-0.134 0.061-0.199 0.091-0.265 0.122-0.154 0.072-0.31 0.146-0.466 0.221l-0.687 0.34c-0.181 0.091-0.361 0.183-0.54 0.277-0.125 0.062-0.248 0.127-0.371 0.192-0.347 0.187-0.7 0.382-1.051 0.581-0.356 0.199-0.707 0.405-1.055 0.616-0.183 0.116-0.368 0.23-0.552 0.346-0.118 0.069-0.234 0.142-0.349 0.216-0.065 0.048-0.134 0.093-0.203 0.137-0.276 0.172-0.549 0.353-0.821 0.538-0.048 0.039-0.098 0.074-0.149 0.109-0.326 0.225-0.603 0.42-0.877 0.619-0.325 0.227-0.65 0.469-0.973 0.717-0.171 0.138-0.338 0.268-0.504 0.399-0.414 0.32-0.823 0.656-1.228 1-0.17 0.151-0.342 0.299-0.512 0.448-0.248 0.212-0.495 0.434-0.74 0.659l-175.050 155.599c-18.115 16.103-19.747 43.841-3.644 61.957 14.864 16.722 39.643 19.398 57.615 7.046l4.342-3.402 102.498-91.114 0.003 253.361c0 24.237 19.648 43.886 43.886 43.886z" />
<glyph unicode="&#x1301c;" glyph-name="g29-quote" d="M677.2 711.159c10.45 6.16 23.359 2.772 29.506-7.392 6.147-10.472 2.766-23.409-7.376-29.569-88.21-52.362-116.486-76.079-118.945-219.921v0h144.148c54.094 0 94.972-40.966 94.666-95.176v0-92.404c0-54.21-40.879-95.176-94.973-95.176v0h-92.205c-52.25 0-94.972 42.506-94.972 95.176v0 166.019c0 179.264 36.267 216.841 140.152 278.444zM344.952 711.159c10.143 6.16 23.359 2.772 29.198-7.392 6.147-10.472 2.766-23.409-7.376-29.569-88.21-52.362-116.486-76.079-118.945-219.921v0h144.148c54.094 0 94.972-40.966 94.972-94.868v0-92.404c0-54.21-40.878-95.176-94.972-95.176v0h-92.205c-52.25 0-94.972 42.506-94.972 95.176v0 166.019c0 178.956 36.267 216.533 140.152 278.136z" />
<glyph unicode="&#x1301d;" glyph-name="g30-p-arrow" d="M535.218 747.39l3.932-3.437 268.992-268.99c0.344-0.348 0.681-0.703 1.011-1.065l0.33-0.365 0.148-0.169c0.292-0.331 0.578-0.668 0.858-1.009 0.17-0.204 0.33-0.403 0.488-0.603 0.103-0.134 0.211-0.274 0.319-0.414 1.183-1.538 2.228-3.142 3.143-4.798 0.135-0.244 0.266-0.488 0.395-0.734 0.197-0.376 0.386-0.753 0.569-1.133 0.127-0.264 0.253-0.533 0.375-0.802 0.142-0.313 0.279-0.627 0.412-0.943l0.065-0.155c0.020-0.048 0.040-0.096 0.060-0.145l0.262-0.653c0.071-0.181 0.14-0.363 0.209-0.546 0.051-0.139 0.102-0.28 0.153-0.422l0.065-0.183c0.070-0.197 0.137-0.394 0.204-0.591 0.133-0.389 0.258-0.782 0.376-1.177 0.060-0.208 0.121-0.42 0.181-0.632 0.101-0.347 0.192-0.691 0.279-1.038 0.022-0.099 0.047-0.202 0.072-0.305l0.072-0.302c0.011-0.048 0.022-0.096 0.034-0.145l0.040-0.159c0.061-0.269 0.118-0.539 0.173-0.81 0.083-0.425 0.163-0.856 0.235-1.288 0.043-0.239 0.080-0.474 0.115-0.71 0.027-0.198 0.055-0.396 0.081-0.596l0.024-0.185c0.029-0.225 0.055-0.45 0.080-0.676 0.025-0.21 0.046-0.425 0.066-0.64 0.015-0.176 0.030-0.35 0.044-0.524l0.024-0.316c0.013-0.177 0.024-0.354 0.034-0.532 0.014-0.233 0.025-0.462 0.034-0.691 0.010-0.276 0.018-0.553 0.023-0.829 0.004-0.226 0.006-0.453 0.006-0.68l-0.006-0.669c-0.003-0.198-0.008-0.396-0.015-0.594-0.008-0.234-0.017-0.47-0.030-0.705l0.050 1.968c0-0.793-0.024-1.581-0.071-2.363-0.015-0.227-0.031-0.456-0.049-0.685l-0.041-0.482c-0.010-0.113-0.021-0.226-0.033-0.338-0.004-0.060-0.011-0.121-0.017-0.182-0.051-0.468-0.109-0.936-0.176-1.402-0.056-0.415-0.122-0.825-0.193-1.233-0.042-0.222-0.083-0.444-0.126-0.666-0.082-0.439-0.175-0.877-0.275-1.312-0.058-0.235-0.114-0.47-0.173-0.705l0.003-0.002-0.147-0.555c-0.063-0.237-0.129-0.474-0.197-0.71-0.093-0.334-0.192-0.66-0.295-0.984l-0.051-0.152c-0.073-0.227-0.148-0.453-0.225-0.679l-0.041-0.119c-0.073-0.212-0.148-0.423-0.225-0.633-0.028-0.081-0.056-0.155-0.084-0.229l-0.068-0.177c-0.108-0.284-0.219-0.568-0.333-0.85-0.092-0.228-0.188-0.456-0.286-0.685-0.035-0.080-0.071-0.162-0.106-0.244-0.178-0.408-0.364-0.814-0.557-1.218-0.053-0.106-0.105-0.214-0.158-0.321l-0.134-0.274c-0.178-0.354-0.361-0.707-0.55-1.057-0.181-0.335-0.369-0.669-0.562-1.002-0.127-0.218-0.254-0.433-0.384-0.647-0.249-0.41-0.507-0.817-0.773-1.221-0.137-0.208-0.28-0.419-0.425-0.63-0.11-0.159-0.216-0.311-0.324-0.463l-0.312-0.432c-0.139-0.19-0.281-0.38-0.424-0.568-0.133-0.17-0.21-0.27-0.288-0.37-0.183-0.238-0.372-0.474-0.563-0.708-0.3-0.365-0.605-0.723-0.916-1.076-0.103-0.119-0.207-0.235-0.312-0.35-0.36-0.398-0.73-0.791-1.108-1.176l-0.001-0.001-0.249-0.251-268.802-268.8c-14.996-14.996-39.31-14.996-54.306 0-13.746 13.747-14.892 35.322-3.436 50.373l3.437 3.932 203.252 203.257-444.897-0.010c-21.208 0-38.4 17.192-38.4 38.4 0 19.576 14.649 35.731 33.583 38.101l4.817 0.299 444.887 0.010-203.242 203.237c-14.996 14.996-14.996 39.31 0 54.306 13.746 13.747 35.322 14.892 50.373 3.437z" />
<glyph unicode="&#x1301e;" glyph-name="g31-p-arrow-rtl" d="M488.782 747.39l-3.932-3.437-268.992-268.99c-0.344-0.348-0.681-0.703-1.011-1.065l-0.33-0.365-0.148-0.169c-0.292-0.331-0.578-0.668-0.858-1.009-0.17-0.204-0.33-0.403-0.488-0.603-0.103-0.134-0.211-0.274-0.319-0.414-1.183-1.538-2.228-3.142-3.143-4.798-0.135-0.244-0.266-0.488-0.395-0.734-0.197-0.376-0.386-0.753-0.569-1.133-0.127-0.264-0.253-0.533-0.375-0.802-0.142-0.313-0.279-0.627-0.412-0.943l-0.065-0.155c-0.020-0.048-0.040-0.096-0.060-0.145l-0.262-0.653c-0.071-0.181-0.14-0.363-0.209-0.546-0.051-0.139-0.102-0.28-0.153-0.422l-0.065-0.183c-0.070-0.197-0.137-0.394-0.204-0.591-0.133-0.389-0.258-0.782-0.376-1.177-0.060-0.208-0.121-0.42-0.181-0.632-0.101-0.347-0.192-0.691-0.279-1.038-0.022-0.099-0.047-0.202-0.072-0.305l-0.072-0.302c-0.011-0.048-0.022-0.096-0.034-0.145l-0.040-0.159c-0.061-0.269-0.118-0.539-0.173-0.81-0.083-0.425-0.163-0.856-0.235-1.288-0.043-0.239-0.080-0.474-0.115-0.71-0.027-0.198-0.055-0.396-0.081-0.596l-0.024-0.185c-0.029-0.225-0.055-0.45-0.080-0.676-0.025-0.21-0.046-0.425-0.066-0.64-0.015-0.176-0.030-0.35-0.044-0.524l-0.024-0.316c-0.013-0.177-0.024-0.354-0.034-0.532-0.014-0.233-0.025-0.462-0.034-0.691-0.010-0.276-0.018-0.553-0.023-0.829-0.004-0.226-0.006-0.453-0.006-0.68l0.006-0.669c0.003-0.198 0.008-0.396 0.015-0.594 0.008-0.234 0.017-0.47 0.030-0.705l-0.050 1.968c0-0.793 0.024-1.581 0.071-2.363 0.015-0.227 0.031-0.456 0.049-0.685l0.041-0.482c0.010-0.113 0.021-0.226 0.033-0.338 0.004-0.060 0.011-0.121 0.017-0.182 0.051-0.468 0.109-0.936 0.176-1.402 0.056-0.415 0.122-0.825 0.193-1.233 0.042-0.222 0.083-0.444 0.126-0.666 0.082-0.439 0.175-0.877 0.275-1.312 0.058-0.235 0.114-0.47 0.173-0.705l-0.003-0.002 0.147-0.555c0.063-0.237 0.129-0.474 0.197-0.71 0.093-0.334 0.192-0.66 0.295-0.984l0.051-0.152c0.073-0.227 0.148-0.453 0.225-0.679l0.041-0.119c0.073-0.212 0.148-0.423 0.225-0.633 0.028-0.081 0.056-0.155 0.084-0.229l0.068-0.177c0.108-0.284 0.219-0.568 0.333-0.85 0.092-0.228 0.188-0.456 0.286-0.685 0.035-0.080 0.071-0.162 0.106-0.244 0.178-0.408 0.364-0.814 0.557-1.218 0.053-0.106 0.105-0.214 0.158-0.321l0.134-0.274c0.178-0.354 0.361-0.707 0.55-1.057 0.181-0.335 0.369-0.669 0.562-1.002 0.127-0.218 0.254-0.433 0.384-0.647 0.249-0.41 0.507-0.817 0.773-1.221 0.137-0.208 0.28-0.419 0.425-0.63 0.11-0.159 0.216-0.311 0.324-0.463l0.312-0.432c0.139-0.19 0.281-0.38 0.424-0.568 0.133-0.17 0.21-0.27 0.288-0.37 0.183-0.238 0.372-0.474 0.563-0.708 0.3-0.365 0.605-0.723 0.916-1.076 0.103-0.119 0.207-0.235 0.312-0.35 0.36-0.398 0.73-0.791 1.108-1.176l0.001-0.001 0.249-0.251 268.802-268.8c14.996-14.996 39.31-14.996 54.306 0 13.746 13.747 14.892 35.322 3.436 50.373l-3.437 3.932-203.252 203.257 444.897-0.010c21.208 0 38.4 17.192 38.4 38.4 0 19.576-14.649 35.731-33.583 38.101l-4.817 0.299-444.887 0.010 203.242 203.237c14.996 14.996 14.996 39.31 0 54.306-13.746 13.747-35.322 14.892-50.373 3.437z" />
<glyph unicode="&#x1301f;" glyph-name="g32-trophy" d="M300.8 736c0 10.604 8.596 19.2 19.2 19.2h384c10.603 0 19.2-8.596 19.2-19.2 0-20.641-0.456-40.286-1.325-58.978 55.136-8.589 97.325-56.278 97.325-113.822 0-63.623-51.577-115.2-115.2-115.2-8.79 0-17.363 0.987-25.612 2.861-30.329-71.626-72.12-106.644-108.788-115.659v-83.411l54.734-13.684c7.447-1.863 14.447-5.194 20.589-9.8l70.597-52.948c6.611-4.959 9.308-13.591 6.695-21.432s-9.951-13.128-18.215-13.128h-384c-8.264 0-15.601 5.288-18.215 13.128s0.083 16.473 6.695 21.432l70.596 52.948c6.142 4.606 13.142 7.937 20.589 9.8l54.734 13.684v83.411c-36.669 9.014-78.46 44.033-108.789 115.659-8.247-1.874-16.821-2.861-25.611-2.861-63.623 0-115.2 51.577-115.2 115.2 0 57.543 42.191 105.233 97.325 113.822-0.869 18.692-1.325 38.337-1.325 58.978zM304.601 638.456c-35.036-7.131-61.401-38.114-61.401-75.256 0-42.416 34.384-76.8 76.8-76.8 4.166 0 8.247 0.329 12.221 0.963-12.764 40.302-22.565 90.064-27.62 151.093zM691.778 487.363c3.976-0.634 8.055-0.963 12.222-0.963 42.416 0 76.8 34.384 76.8 76.8 0 37.142-26.364 68.125-61.401 75.256-5.056-61.028-14.858-110.79-27.622-151.093zM339.338 716.8c0.289-19.844 1.025-38.629 2.159-56.406 4.967-77.876 17.548-136.182 33.408-179.21 33.193-90.051 78.867-109.984 98.695-109.984 10.603 0 19.2-8.597 19.2-19.2v-100.209c0-17.62-11.992-32.98-29.087-37.255l-54.732-13.684c-2.484-0.619-4.816-1.731-6.864-3.265l-24.517-18.388h268.8l-24.517 18.388c-2.047 1.534-4.38 2.646-6.864 3.265l-54.732 13.684c-17.096 4.274-29.087 19.634-29.087 37.255v100.209c0 10.603 8.597 19.2 19.2 19.2 19.828 0 65.502 19.933 98.695 109.984 15.86 43.028 28.442 101.334 33.408 179.21 1.134 17.777 1.87 36.562 2.159 56.406h-345.324z" />
<glyph unicode="&#x13020;" glyph-name="g33-media" d="M605.831 380.715l-1.809-1.582-108.894-107.858c-21.593-21.388-56.069-22.243-78.693-2.567l-2.764 2.567-22.494 22.28c-6.921 6.855-17.812 7.382-25.344 1.582l-1.809-1.582-74.467-73.754 376.042-0.007c20.524 0 37.287 15.948 38.347 36.014l0.053 2.020-0.009 49.187-72.815 72.117c-6.92 6.855-17.812 7.382-25.344 1.582zM665.599 600.137h-383.999c-21.208 0-38.4-17.029-38.4-38.034v0-304.274c0-8.493 2.81-16.336 7.56-22.666l86.11 85.288c21.594 21.387 56.069 22.243 78.693 2.566l2.765-2.567 22.495-22.28c6.92-6.855 17.812-7.382 25.344-1.582l1.809 1.582 108.894 107.858c21.593 21.388 56.069 22.243 78.693 2.567l2.764-2.567 45.662-45.231 0.009 201.307c0 20.328-16.101 36.932-36.361 37.982l-2.039 0.053zM742.398 299.109c22.372 7.831 38.402 28.965 38.402 53.805v0 266.24c0 31.509-25.789 57.051-57.6 57.051v0h-345.599c-25.079 0-46.415-15.876-54.322-38.034v0h342.32c42.415 0 76.8-34.057 76.8-76.069v0zM387.199 562.103c47.717 0 86.4-38.314 86.4-85.577s-38.682-85.577-86.4-85.577c-47.717 0-86.4 38.314-86.4 85.577s38.682 85.577 86.4 85.577zM387.199 524.069c-26.51 0-48-21.286-48-47.543s21.49-47.543 48-47.543c26.51 0 48 21.286 48 47.543s-21.49 47.543-48 47.543zM742.398 257.829c0-42.012-34.384-76.069-76.8-76.069v0h-383.999c-42.415 0-76.8 34.057-76.8 76.069v0 304.274c0 42.012 34.384 76.069 76.8 76.069v0h1.922c8.895 43.402 47.635 76.069 94.079 76.069v0h345.599c53.019 0 96-42.571 96-95.086v0-266.24c0-46.002-32.982-84.375-76.802-93.184v0z" />
<glyph unicode="&#x13021;" glyph-name="g34-completed" d="M204.8 448c0 171.154 136.046 307.2 307.2 307.2s307.2-136.046 307.2-307.2c0-171.153-136.047-307.2-307.2-307.2s-307.2 136.047-307.2 307.2zM248.686 448c0-144.823 118.491-263.313 263.314-263.313s263.313 118.49 263.313 263.313c0 144.823-118.49 263.314-263.313 263.314s-263.314-118.491-263.314-263.314zM668.343 522.058c9.996 9.998 9.996 26.207 0 36.204-9.999 9.997-26.207 9.997-36.207 0l-166.217-166.219-74.058 74.059c-9.998 9.997-26.207 9.997-36.204 0s-9.997-26.206 0-36.205l92.16-92.16c9.998-9.996 26.207-9.996 36.204 0l184.321 184.321z" />
<glyph unicode="&#x13022;" glyph-name="g35-rejected" d="M512 755.2c171.153 0 307.2-136.046 307.2-307.2s-136.047-307.2-307.2-307.2c-171.154 0-307.2 136.047-307.2 307.2s136.046 307.2 307.2 307.2zM512 711.314c-144.823 0-263.314-118.491-263.314-263.314s118.491-263.313 263.314-263.313c144.823 0 263.313 118.49 263.313 263.313s-118.49 263.314-263.313 263.314zM630.49 601.6l35.11-35.109-118.49-118.491 118.49-118.49-35.11-35.11-118.49 118.49-118.491-118.49-35.109 35.11 118.491 118.49-118.491 118.491 35.109 35.109 118.491-118.491 118.49 118.491z" />
<glyph unicode="&#x13023;" glyph-name="g36-returned" d="M512 755.2c171.153 0 307.2-136.046 307.2-307.2s-136.047-307.2-307.2-307.2c-171.154 0-307.2 136.047-307.2 307.2s136.046 307.2 307.2 307.2zM512 711.314c-144.823 0-263.314-118.491-263.314-263.314s118.491-263.313 263.314-263.313c144.823 0 263.313 118.49 263.313 263.313s-118.49 263.314-263.313 263.314zM430.502 562.077c8.051-8.307 8.594-21.116 1.762-30.031l-2.271-2.549-28.892-27.983 178.44-0.006c55.885 0 101.474-44.186 101.474-99.059 0-52.982-42.5-96.003-95.731-98.907l-5.743-0.156h-78.435c-12.725 0-23.040 10.315-23.040 23.040 0 11.664 8.668 21.304 19.914 22.83l3.126 0.21h78.435c30.751 0 55.394 23.886 55.394 52.983 0 27.641-22.239 50.578-50.83 52.803l-4.565 0.177-178.44 0.006 28.892-27.997c9.137-8.856 9.365-23.442 0.509-32.58-8.051-8.306-20.838-9.25-29.961-2.699l-2.619 2.19-70.457 68.356-1.516 1.792-1.251 1.757-1.69 3.246-0.988 2.843-0.613 2.999-0.21 3.126 0.304 3.741 0.519 2.384 0.988 2.843 1.619 3.132 1.063 1.573 1.078 1.35 1.434 1.521 69.719 67.574c9.137 8.856 23.723 8.628 32.58-0.509z" />
<glyph unicode="&#x13024;" glyph-name="g37-tiles" d="M750.777 417.252c16.811-0.241 24.773-1.499 34.875-6.646 11.562-5.892 20.959-15.289 26.851-26.85 4.267-8.373 5.836-14.088 6.398-26v0l0.244-8.956 0.057-128.12-0.057-11.375-0.244-8.956c-0.562-11.912-2.131-17.627-6.397-25.999-5.892-11.562-15.289-20.959-26.85-26.851-8.373-4.267-14.088-5.836-26-6.398v0l-8.956-0.244h-139.495l-8.956 0.244c-11.912 0.562-17.627 2.131-25.999 6.397-11.562 5.892-20.959 15.289-26.851 26.85-4.266 8.373-5.836 14.088-6.398 26v0l-0.244 8.956-0.005 139.575c0.241 16.811 1.499 24.773 6.646 34.875 5.892 11.562 15.289 20.959 26.85 26.851 8.373 4.266 14.088 5.836 26 6.398v0l8.956 0.244zM412.828 417.252c16.811-0.241 24.773-1.499 34.877-6.648 11.561-5.892 20.96-15.29 26.849-26.85 4.266-8.372 5.835-14.088 6.397-25.999v0l0.244-8.956 0.057-128.12-0.057-11.375-0.244-8.956c-0.562-11.911-2.131-17.626-6.396-25.998-5.891-11.562-15.289-20.96-26.853-26.853-8.372-4.266-14.089-5.836-26-6.397v0l-8.956-0.244h-139.494l-8.956 0.244c-11.911 0.562-17.628 2.131-26.002 6.399-11.561 5.892-20.96 15.29-26.849 26.85-4.266 8.372-5.835 14.088-6.397 26v0l-0.244 8.956-0.005 139.575c0.241 16.811 1.498 24.772 6.645 34.873 5.891 11.562 15.289 20.96 26.853 26.853 8.372 4.266 14.089 5.836 26 6.397v0l8.956 0.244zM622.574 355.858l-18.286-0.129-0.090-6.842-0.032-135.461 0.086-11.034 153.356-0.036 0.147 135.069-0.11 18.287-6.86 0.090-128.21 0.056zM284.626 355.858l-18.286-0.128-0.090-6.843-0.032-135.462 0.086-11.036 153.354-0.036 0.148 135.070-0.111 18.289-6.86 0.089-128.21 0.056zM412.828 755.2c16.81-0.241 24.772-1.498 34.875-6.646 11.561-5.891 20.96-15.29 26.852-26.852 4.266-8.372 5.835-14.088 6.397-25.999v0l0.244-8.956 0.057-128.12-0.057-11.374-0.244-8.956c-0.562-11.911-2.131-17.627-6.396-25.999-5.891-11.562-15.289-20.96-26.853-26.853-8.372-4.266-14.089-5.836-26-6.397v0l-8.956-0.244h-139.494l-8.956 0.244c-11.911 0.562-17.628 2.131-26.002 6.399-11.561 5.892-20.96 15.29-26.85 26.851-4.266 8.372-5.835 14.088-6.396 26v0l-0.244 8.956-0.005 139.574c0.241 16.81 1.498 24.772 6.646 34.875 5.891 11.561 15.29 20.96 26.852 26.852 8.372 4.266 14.088 5.835 25.999 6.397v0l8.956 0.244zM750.777 755.2c16.811-0.241 24.772-1.498 34.873-6.645 11.562-5.891 20.96-15.289 26.853-26.853 4.266-8.372 5.836-14.089 6.397-26v0l0.244-8.956 0.057-128.12-0.057-11.374-0.244-8.956c-0.562-11.911-2.131-17.628-6.397-26-5.892-11.562-15.289-20.959-26.85-26.851-8.373-4.267-14.088-5.836-26-6.398v0l-8.956-0.244h-139.495l-8.956 0.244c-11.912 0.562-17.627 2.131-25.999 6.397-11.562 5.892-20.959 15.289-26.851 26.851-4.266 8.373-5.835 14.089-6.397 26v0l-0.244 8.956-0.005 139.574c0.241 16.811 1.499 24.773 6.648 34.877 5.892 11.561 15.29 20.96 26.85 26.849 8.372 4.266 14.088 5.835 25.999 6.397v0l8.956 0.244zM284.626 693.806l-18.286-0.128-0.090-6.843-0.032-135.461 0.086-11.036 153.354-0.036 0.148 135.070-0.11 18.287-6.861 0.090-128.21 0.056zM622.574 693.806l-18.286-0.129-0.090-6.842-0.032-135.461 0.086-11.034 153.356-0.036 0.147 135.069-0.109 18.285-6.861 0.092-128.21 0.056z" />
<glyph unicode="&#x13025;" glyph-name="g38-list" d="M266.24 325.12c33.932 0 61.44-27.507 61.44-61.44s-27.508-61.44-61.44-61.44c-33.932 0-61.44 27.507-61.44 61.44s27.508 61.44 61.44 61.44zM788.48 294.4c16.966 0 30.72-13.754 30.72-30.72 0-15.754-11.859-28.739-27.137-30.513l-3.583-0.207h-368.64c-16.966 0-30.72 13.754-30.72 30.72 0 15.754 11.859 28.739 27.137 30.513l3.583 0.207h368.64zM266.24 509.44c33.932 0 61.44-27.507 61.44-61.44s-27.508-61.44-61.44-61.44c-33.932 0-61.44 27.507-61.44 61.44s27.508 61.44 61.44 61.44zM788.48 478.72c16.966 0 30.72-13.754 30.72-30.72 0-15.754-11.859-28.739-27.137-30.513l-3.583-0.207h-368.64c-16.966 0-30.72 13.754-30.72 30.72 0 15.754 11.859 28.739 27.137 30.513l3.583 0.207h368.64zM266.24 693.76c33.932 0 61.44-27.508 61.44-61.44s-27.508-61.44-61.44-61.44c-33.932 0-61.44 27.508-61.44 61.44s27.508 61.44 61.44 61.44zM788.48 663.040c16.966 0 30.72-13.754 30.72-30.72 0-15.754-11.859-28.739-27.137-30.513l-3.583-0.207h-368.64c-16.966 0-30.72 13.754-30.72 30.72 0 15.754 11.859 28.739 27.137 30.513l3.583 0.207h368.64z" />
<glyph unicode="&#x13026;" glyph-name="g39-folder" d="M434.689 724.48l10.687-0.1 8.449-0.271c3.762-0.19 6.902-0.472 9.749-0.885l5.398-1.015 5.196-1.438c0.881-0.279 1.779-0.579 2.704-0.9 11.739-4.083 22.432-10.746 31.306-19.509 3.598-3.553 6.756-7.454 9.763-11.959l2.277-3.534 3.404-5.878 2.659-5.016 7.474-14.867 23.436-47.268 115.734-0.009c1.389-0.004 2.752-0.010 4.092-0.018l3.947-0.028 14.43-0.239 12.478-0.485c23.2-1.257 36.45-4.358 50.336-11.491 21.021-10.8 38.109-28.032 48.818-49.226 0.455-0.901 0.894-1.791 1.316-2.675v0l2.345-5.252c2.88-6.979 4.802-14.039 6.077-23.241v0l0.84-7.335 0.627-8.331 0.443-9.52 0.289-10.903 0.164-12.478 0.075-146-0.075-22.094-0.164-12.478-0.289-10.902-0.443-9.52-0.627-8.331-0.84-7.334c-1.435-10.351-3.687-17.993-7.202-25.858v0l-2.535-5.309c-10.709-21.196-27.798-38.427-48.818-49.226-0.894-0.459-1.777-0.901-2.653-1.327v0l-5.208-2.364c-6.922-2.904-13.924-4.842-23.049-6.127v0l-7.274-0.847-8.262-0.632-9.441-0.447-10.812-0.291-12.375-0.165-357.453 0.456-9.441 0.447-8.262 0.632-7.274 0.847c-10.265 1.447-17.843 3.718-25.643 7.262v0l-5.265 2.556c-21.020 10.799-38.11 28.030-48.82 49.226-7.074 14.001-10.149 27.363-11.396 50.785v0l-0.481 12.599c-0.058 2.256-0.106 4.595-0.145 7.021v0l-0.138 15.672-0.015 274.822 0.039 36.027 0.156 11.677 0.328 9.77c0.863 17.855 3.082 26.264 8.609 37.201 8.032 15.897 20.85 28.821 36.614 36.92l4.982 2.391c7.332 3.238 14.345 4.958 25.257 5.86l7.899 0.488 9.333 0.291 17.295 0.169h119.377zM260.627 555.554l0.077-253.111 0.289-16.658 0.369-8.973 0.531-7.502 0.709-6.233 0.905-5.165c0.841-3.915 1.904-6.927 3.235-9.561 5.355-10.597 13.899-19.212 24.41-24.612v0l2.674-1.239 2.947-1.067 3.369-0.907 3.939-0.759 4.658-0.623 8.659-0.704 7.103-0.334 8.341-0.239 20.99-0.241 327.596 0.085 18.069 0.395 7.103 0.334 8.659 0.704 4.658 0.623 3.94 0.759c0.605 0.139 1.186 0.283 1.747 0.434v0l3.14 0.986c0.49 0.178 0.966 0.363 1.43 0.554v0l2.675 1.239c10.509 5.399 19.052 14.013 24.407 24.611 0.22 0.435 0.432 0.875 0.637 1.323v0l1.142 2.816c0.176 0.494 0.346 1.003 0.509 1.53v0l0.9 3.398 0.753 3.972 0.618 4.697 0.699 8.731 0.331 7.163 0.237 8.411 0.239 21.165 0.025 136.959-0.11 24.409-0.392 18.22-0.331 7.163-0.699 8.731-0.618 4.697-0.753 3.972c-0.137 0.61-0.281 1.196-0.431 1.761v0l-0.978 3.166c-0.176 0.494-0.36 0.974-0.55 1.442v0l-1.229 2.697c-5.355 10.598-13.898 19.213-24.407 24.612v0l-1.616 0.773c-2.226 0.989-4.759 1.811-7.863 2.489v0l-5.118 0.913-6.175 0.715c-1.128 0.104-2.309 0.2-3.546 0.289v0l-8.132 0.451-9.686 0.297-11.438 0.161-418.649 0.078zM437.581 668.143l-131.545-0.050-11.907-0.257-8.246-0.484-3.901-0.47c-0.562-0.089-1.083-0.184-1.57-0.284l-2.543-0.674c-0.737-0.249-1.378-0.524-1.966-0.827-5.255-2.7-9.527-7.007-12.204-12.306l-0.773-1.844-0.639-2.341-0.517-3.056-0.404-3.989-0.302-5.14-0.286-10.346-0.098-14.224 234.025-0.010-16.323 32.904-3.542 6.783-2.494 4.286-0.741 1.141c-0.981 1.469-1.757 2.428-2.508 3.17-2.959 2.922-6.524 5.143-10.437 6.504l-1.987 0.548-2.666 0.408-3.78 0.285-12.646 0.274z" />
<glyph unicode="&#x13027;" glyph-name="g40-user" d="M597.965 375.933l25.26-0.194 18.7-0.584 9.79-0.696 8.327-1.004 7.444-1.366 7.143-1.782c1.198-0.335 2.407-0.689 3.64-1.064 49.632-15.074 88.472-53.964 103.525-103.662l2.006-7.222c0.296-1.188 0.574-2.377 0.834-3.578l1.363-7.455 1.002-8.339 0.695-9.804 0.441-11.851 0.336-32.169 0.009-6.711c0-1.155 0-2.328 0-3.52 0-18.851-15.261-34.133-34.087-34.133s-34.087 15.282-34.087 34.133l-0.166 31.725-0.426 15.905-0.479 7.791-0.668 6.129c-0.129 0.911-0.266 1.773-0.413 2.598l-1.002 4.579c-0.188 0.716-0.386 1.414-0.596 2.107-8.443 27.877-30.23 49.692-58.081 58.15l-6.674 1.601-5.478 0.774-11.015 0.79-15.882 0.427-31.678 0.166-183.175-0.166-15.883-0.427-7.781-0.481-6.121-0.67c-0.91-0.129-1.771-0.267-2.595-0.414l-4.574-1.005c-0.715-0.188-1.413-0.387-2.105-0.597-27.841-8.456-49.626-30.27-58.072-58.15l-1.127-4.314-0.884-4.969-0.668-6.128-0.657-12.467-0.326-17.907-0.088-25.046c0-18.851-15.261-34.133-34.087-34.133s-34.087 15.282-34.087 34.133l0.203 35.526 0.334 13.092 0.561 10.755 0.842 8.999 1.176 7.825 1.564 7.232 2.006 7.222c15.055 49.698 53.892 88.587 103.515 103.659l7.213 2.010c1.187 0.297 2.374 0.575 3.574 0.836l7.446 1.366 8.328 1.004 9.791 0.696 11.835 0.442 32.126 0.336h171.93zM512 755.2c94.128 0 170.434-76.41 170.434-170.667s-76.306-170.667-170.434-170.667c-94.127 0-170.433 76.41-170.433 170.667s76.306 170.667 170.433 170.667zM512 686.933c-56.476 0-102.26-45.846-102.26-102.4s45.783-102.4 102.26-102.4c56.477 0 102.261 45.846 102.261 102.4s-45.784 102.4-102.261 102.4z" />
<glyph unicode="&#x13028;" glyph-name="g41-logout" d="M602.742 755.2c18.793 0 34.028-15.282 34.028-34.133 0-17.28-12.802-31.562-29.411-33.822l-4.617-0.312h-241.979c-7.019 0-13.751-2.797-18.715-7.776-3.971-3.983-6.55-9.102-7.422-14.594l-0.33-4.178v-424.772c0-7.040 2.788-13.792 7.75-18.77 3.972-3.983 9.075-6.57 14.551-7.446l4.165-0.331h241.979c18.793 0 34.028-15.282 34.028-34.133 0-17.28-12.802-31.562-29.411-33.822l-4.617-0.312h-241.979c-25.068 0-49.109 9.989-66.84 27.772-15.756 15.807-25.374 36.616-27.317 58.705l-0.366 8.336v424.772c0 25.146 9.959 49.263 27.685 67.044 15.757 15.805 36.504 25.454 58.527 27.403l8.311 0.367h241.979zM757.76 448l-0.001-0.272c-0.003-0.318-0.009-0.636-0.021-0.954-0.013-0.38-0.034-0.767-0.060-1.153-0.019-0.28-0.042-0.56-0.068-0.839v-0.002l-0.056-0.567-0.050-0.417c-0.038-0.308-0.080-0.616-0.126-0.924-0.058-0.385-0.122-0.768-0.193-1.15-0.047-0.256-0.098-0.512-0.151-0.767-0.083-0.398-0.174-0.794-0.271-1.189-0.057-0.233-0.118-0.468-0.181-0.703-0.106-0.394-0.218-0.783-0.338-1.17-0.044-0.144-0.089-0.287-0.135-0.43l-0.055-0.176c-0.045-0.136-0.091-0.272-0.137-0.408-0.025-0.069-0.051-0.144-0.077-0.218l-0.156-0.438c-0.163-0.444-0.334-0.883-0.514-1.317-0.073-0.176-0.147-0.351-0.222-0.525-0.144-0.333-0.296-0.667-0.453-1-0.149-0.315-0.301-0.626-0.459-0.934-0.15-0.294-0.304-0.585-0.462-0.874-0.146-0.266-0.298-0.536-0.454-0.803-0.203-0.348-0.41-0.689-0.624-1.027-0.144-0.227-0.292-0.456-0.443-0.683-0.213-0.319-0.429-0.633-0.652-0.944-0.101-0.141-0.204-0.282-0.308-0.423-0.148-0.195-0.254-0.336-0.362-0.477-0.17-0.225-0.348-0.451-0.529-0.675-0.209-0.256-0.417-0.506-0.628-0.753-0.113-0.134-0.233-0.272-0.354-0.409l-0.232-0.259c-0.272-0.302-0.55-0.599-0.832-0.891l-0.358-0.364-120.99-121.364c-13.289-13.33-34.834-13.33-48.123 0-12.081 12.118-13.179 31.081-3.295 44.443l3.295 3.828 62.897 63.099-220.319-0.003c-18.793 0-34.028 15.282-34.028 34.133 0 17.28 12.802 31.562 29.411 33.822l4.617 0.312 220.309 0.007-62.886 63.087c-13.289 13.33-13.289 34.942 0 48.272 12.081 12.118 30.985 13.22 44.307 3.305l3.817-3.305 120.99-121.363c0.429-0.431 0.848-0.873 1.254-1.326l-1.254 1.326c0.703-0.705 1.369-1.434 1.998-2.183 0.151-0.182 0.306-0.371 0.459-0.561 0.247-0.305 0.482-0.608 0.711-0.914 0.13-0.177 0.263-0.359 0.395-0.542 0.217-0.298 0.426-0.599 0.63-0.902 0.175-0.265 0.348-0.531 0.517-0.8 0.127-0.196 0.25-0.395 0.371-0.595 0.164-0.272 0.322-0.543 0.477-0.817s0.309-0.556 0.459-0.839c0.344-0.657 0.657-1.296 0.95-1.947 0.16-0.354 0.31-0.704 0.454-1.057 0.092-0.225 0.183-0.454 0.271-0.684 0.027-0.070 0.052-0.135 0.076-0.201l0.179-0.484c0.377-1.047 0.705-2.117 0.981-3.209 0.007-0.041 0.019-0.086 0.030-0.13l0.054-0.208c0.097-0.4 0.186-0.803 0.269-1.208 0.020-0.111 0.043-0.227 0.065-0.343 0.013-0.066 0.024-0.127 0.036-0.189l0.042-0.212c0.061-0.336 0.116-0.674 0.167-1.014 0.010-0.086 0.023-0.172 0.035-0.258l0.033-0.224c0.15-1.11 0.246-2.237 0.287-3.379 0.007-0.2 0.012-0.398 0.016-0.596 0.002-0.081 0.003-0.163 0.004-0.245l0.002-0.397z" />
<glyph unicode="&#x13029;" glyph-name="g42-mail2" d="M742.4 673.28c40.487 0 73.657-31.33 76.589-71.068l0.211-5.732v-307.2c0-40.486-31.331-73.657-71.068-76.589l-5.732-0.211h-460.8c-40.487 0-73.658 31.33-76.589 71.068l-0.211 5.732v307.2c0 40.488 31.33 73.658 71.068 76.589l5.732 0.211h460.8zM560.835 411.402l-48.835-29.313-48.845 29.313-218.632-132.152c4.034-14.948 16.866-26.285 32.599-28.112l4.478-0.258h460.8c17.739 0 32.67 12.031 37.079 28.377l-218.644 132.145zM780.8 543.386l-182.712-109.629 182.712-110.438v220.068zM243.2 543.375v-220.047l182.702 110.428-182.702 109.619zM742.4 634.88h-460.8c-19.693 0-35.923-14.824-38.142-33.922l-0.258-4.478v-8.335l268.762-161.239 39.042 23.368 229.796 137.881v8.325c0 19.693-14.824 35.923-33.922 38.142l-4.478 0.258z" />
<glyph unicode="&#x1302a;" glyph-name="g43-phone" d="M628.736 755.2c42.982 0 77.824-34.385 77.824-76.8v0-460.8c0-42.417-34.842-76.8-77.824-76.8v0h-233.472c-42.981 0-77.824 34.383-77.824 76.8v0 460.8c0 42.415 34.843 76.8 77.824 76.8v0zM628.736 716.8h-233.472c-21.49 0-38.912-17.192-38.912-38.4v-460.8c0-21.208 17.422-38.4 38.912-38.4h233.472c21.491 0 38.912 17.192 38.912 38.4v460.8c0 21.208-17.421 38.4-38.912 38.4zM512 294.4c21.49 0 38.912-17.192 38.912-38.4s-17.422-38.4-38.912-38.4c-21.49 0-38.912 17.192-38.912 38.4s17.422 38.4 38.912 38.4z" />
<glyph unicode="&#x1302b;" glyph-name="g44-calendar" d="M619.52 755.2c14.441 0 26.344-10.781 27.971-24.67l0.189-3.257-0.010-27.973 1.42-0.015 14.55-0.237 12.582-0.481c23.393-1.247 36.754-4.322 50.756-11.396 21.195-10.71 38.426-27.799 49.224-48.818 0.459-0.894 0.901-1.777 1.327-2.653v0l2.364-5.208c2.904-6.922 4.842-13.923 6.128-23.048v0l0.847-7.274 0.632-8.262 0.447-9.441 0.291-10.812 0.165-12.375 0.019-53.641c0.037-0.59 0.057-1.184 0.057-1.784l-0.061-1.695 0.061-199.381-0.076-21.911-0.165-12.375-0.291-10.812-0.447-9.441-0.632-8.262-0.847-7.274c-1.447-10.266-3.718-17.844-7.262-25.644v0l-2.556-5.265c-10.799-21.021-28.030-38.109-49.225-48.818-0.901-0.455-1.791-0.894-2.675-1.316v0l-5.252-2.345c-6.98-2.88-14.040-4.801-23.241-6.077v0l-7.334-0.84-8.33-0.627-9.52-0.443-10.902-0.289-12.478-0.164-304.112 0.453-9.52 0.443-8.331 0.627-7.334 0.84c-10.351 1.435-17.992 3.687-25.857 7.202v0l-5.309 2.535c-21.195 10.71-38.427 27.798-49.227 48.819-7.133 13.885-10.233 27.136-11.491 50.366v0l-0.485 12.496c-0.059 2.238-0.107 4.557-0.147 6.964v0l-0.139 15.543-0.013 216.352c-0.001 0.113-0.002 0.227-0.002 0.34l0.010 0.363 0.005 48.85c0.004 1.389 0.010 2.752 0.018 4.092l0.028 3.947 0.239 14.43 0.485 12.478c1.258 23.2 4.358 36.451 11.491 50.335 10.799 21.020 28.031 38.109 49.226 48.819 14 7.075 27.361 10.149 50.755 11.396v0l12.582 0.481c2.253 0.058 4.588 0.106 7.011 0.145v0l8.95 0.076v28.004c0 15.424 12.608 27.927 28.16 27.927 14.441 0 26.344-10.781 27.971-24.67l0.189-3.257v-27.942h168.95l0.010 27.942c0 15.424 12.608 27.927 28.16 27.927zM732.15 475.935h-450.509l0.009-195.14 0.291-16.52 0.372-8.899 0.535-7.44 0.715-6.181 0.913-5.122c0.848-3.883 1.92-6.87 3.262-9.482 5.399-10.509 14.014-19.053 24.613-24.408v0l2.696-1.229 2.972-1.058 3.397-0.9 3.972-0.753 4.697-0.618 8.731-0.699 7.163-0.331 8.411-0.237 21.164-0.239 274.006 0.084 18.219 0.392 7.163 0.331 8.731 0.699 4.697 0.618 3.972 0.753c0.61 0.137 1.196 0.281 1.761 0.431v0l3.166 0.978c0.494 0.176 0.974 0.36 1.442 0.55v0l2.697 1.229c10.597 5.354 19.211 13.897 24.61 24.407 0.222 0.431 0.435 0.868 0.642 1.312v0l1.152 2.793c0.178 0.49 0.349 0.995 0.513 1.517v0l0.907 3.369 0.759 3.94 0.623 4.658 0.704 8.659 0.334 7.103 0.239 8.341 0.241 20.99 0.015 186.102zM591.35 643.451h-168.95v-27.887c0-15.424-12.608-27.927-28.16-27.927-14.441 0-26.344 10.781-27.971 24.67l-0.189 3.257v27.877l-16.296-0.288-8.973-0.369-7.502-0.531-6.233-0.709-5.165-0.905c-3.915-0.841-6.927-1.904-9.56-3.235-10.597-5.355-19.213-13.9-24.613-24.409-1.342-2.611-2.414-5.598-3.262-9.479v0l-0.913-5.118-0.715-6.175c-0.104-1.128-0.2-2.309-0.289-3.546v0l-0.451-8.132-0.297-9.685-0.161-11.438-0.009-27.638h450.519v5.584l-0.111 24.207-0.395 18.069-0.334 7.103-0.704 8.659-0.623 4.658-0.759 3.94c-0.139 0.605-0.283 1.186-0.434 1.747v0l-0.986 3.14c-0.178 0.49-0.363 0.966-0.554 1.43v0l-1.239 2.674c-5.399 10.51-14.014 19.054-24.61 24.408-2.634 1.331-5.646 2.394-9.559 3.235v0l-5.161 0.905-6.226 0.709c-1.138 0.103-2.328 0.198-3.575 0.287v0l-8.2 0.448-9.766 0.295-11.253 0.169 0.010-27.887c0-15.424-12.608-27.927-28.16-27.927-14.441 0-26.344 10.781-27.971 24.67l-0.189 3.257-0.010 27.887z" />
<glyph unicode="&#x1302c;" glyph-name="g45-plane" d="M794.481 754.946l0.248 0.040c0.215 0.031 0.43 0.059 0.646 0.083 0.296 0.033 0.593 0.060 0.89 0.081 0.274 0.019 0.548 0.033 0.821 0.042 0.098 0.003 0.198 0.006 0.297 0.007h0.758c0.11-0.002 0.219-0.005 0.329-0.008 0.146-0.005 0.293-0.011 0.441-0.019l0.287-0.018c0.33-0.022 0.658-0.052 0.985-0.090 0.192-0.022 0.386-0.047 0.581-0.075 0.222-0.034 0.44-0.068 0.657-0.106 0.187-0.031 0.374-0.066 0.562-0.104l0.373-0.079c0.316-0.070 0.629-0.146 0.941-0.23 0.144-0.039 0.295-0.081 0.445-0.125 0.332-0.093 0.663-0.197 0.993-0.31 0.102-0.040 0.204-0.076 0.306-0.113l0.257-0.089c0.47-0.176 0.935-0.37 1.395-0.58 0.082-0.044 0.16-0.080 0.238-0.117 0.361-0.164 0.721-0.347 1.077-0.541 0.036-0.022 0.069-0.041 0.102-0.059 0.095-0.056 0.16-0.092 0.225-0.129 0.299-0.164 0.593-0.34 0.884-0.525 0.257-0.162 0.513-0.332 0.765-0.506 0.095-0.068 0.185-0.132 0.276-0.197l0.157-0.115c0.112-0.082 0.223-0.164 0.333-0.248 0.203-0.15 0.407-0.312 0.608-0.477 0.085-0.076 0.175-0.151 0.264-0.227l0.122-0.101c0.068-0.059 0.136-0.118 0.203-0.177 0.050-0.042 0.1-0.087 0.15-0.131l0.346-0.32c0.227-0.213 0.45-0.432 0.669-0.656l0.139-0.144c0.082-0.086 0.163-0.173 0.244-0.26 0.615-0.663 1.191-1.369 1.722-2.116 0.088-0.127 0.176-0.253 0.263-0.38 0.213-0.311 0.419-0.632 0.616-0.959 0.069-0.113 0.135-0.224 0.2-0.335l0.156-0.277c0.117-0.209 0.23-0.42 0.341-0.634 0.066-0.132 0.131-0.262 0.196-0.393 0.055-0.099 0.102-0.196 0.148-0.293l0.107-0.24c0.086-0.188 0.17-0.379 0.251-0.57 0.055-0.132 0.109-0.261 0.161-0.392 0.065-0.148 0.122-0.296 0.178-0.445l0.031-0.099c0.018-0.049 0.036-0.097 0.053-0.146l0.134-0.379c0.024-0.069 0.047-0.138 0.070-0.208l0.073-0.28 0.238-0.752c0.034-0.123 0.066-0.245 0.098-0.368 0.071-0.274 0.135-0.546 0.193-0.819l-0.001 0.002 0.090-0.443c0.009-0.048 0.018-0.096 0.027-0.144 0.079-0.426 0.145-0.856 0.199-1.288 0.009-0.109 0.022-0.215 0.033-0.321 0.036-0.297 0.062-0.598 0.082-0.899 0.018-0.271 0.030-0.538 0.037-0.804 0.006-0.234 0.009-0.473 0.007-0.711-0.002-0.322-0.011-0.636-0.027-0.949-0.010-0.195-0.023-0.4-0.039-0.605-0.027-0.334-0.060-0.657-0.101-0.979-0.007-0.056-0.015-0.118-0.023-0.179-0.029-0.188-0.049-0.326-0.070-0.463-0.052-0.346-0.114-0.684-0.183-1.021-0.056-0.271-0.118-0.544-0.185-0.817-0.062-0.245-0.127-0.487-0.195-0.728-0.085-0.308-0.181-0.619-0.284-0.928-0.048-0.132-0.092-0.258-0.137-0.383l-0.034-0.093-203.445-563.173c-3.079-6.717-8.022-12.411-14.234-16.396-6.219-3.994-13.457-6.116-20.849-6.116-7.39 0-14.627 2.123-20.837 6.111-4.977 3.193-9.135 7.475-12.016 12.164l-1.913 3.583-105.995 211.983-211.316 105.672c-6.718 3.078-12.41 8.021-16.402 14.24s-6.113 13.453-6.113 20.842c0 7.389 2.121 14.623 6.113 20.843 3.326 5.182 7.833 9.478 14.085 12.937l3.965 1.976 561.826 202.885c0.158 0.054 0.316 0.106 0.475 0.157l0.525 0.147 0.219 0.072c0.092 0.026 0.184 0.051 0.275 0.075 0.317 0.085 0.635 0.161 0.956 0.231 0.251 0.054 0.507 0.105 0.763 0.151 0.143 0.026 0.28 0.049 0.417 0.071 0.015 0 0.039 0.004 0.063 0.007zM744.94 650.639l-264.253-264.253 98.008-196.063 166.245 460.316zM714.68 681.001l-460.472-166.219 196.167-98.086 264.305 264.305z" />
<glyph unicode="&#x1302d;" glyph-name="g46-clock" d="M819.2 448c0-169.663-137.537-307.2-307.2-307.2s-307.2 137.537-307.2 307.2c0 169.662 137.538 307.2 307.2 307.2s307.2-137.538 307.2-307.2zM512 620.8c0 10.604-8.596 19.2-19.2 19.2s-19.2-8.596-19.2-19.2v-211.2c0-6.89 3.692-13.252 9.674-16.67l134.399-76.799c9.208-5.261 20.936-2.062 26.196 7.142 5.261 9.208 2.062 20.936-7.142 26.196l-124.727 71.273v200.058z" />
<glyph unicode="&#x1302e;" glyph-name="g47-edit" d="M621.797 755.2c122.117 0 160.623-38.632 162.114-164.222l0.045-134.362c0-12.306-9.954-22.282-22.234-22.282-11.256 0-20.559 8.383-22.031 19.259l-0.203 3.024-0.027 133.471-0.233 13.368c-0.060 2.144-0.131 4.247-0.214 6.31l-0.645 11.893c-0.133 1.903-0.279 3.767-0.439 5.592l-1.132 10.499c-6.765 51.932-28.182 68.471-84.783 72.064l-11.4 0.54-12.312 0.253-236.992 0.001-12.322-0.25-11.41-0.536c-60.306-3.805-80.726-22.262-86.026-82.449l-0.803-11.409-0.502-12.365-0.235-13.357-0.028-341.594c0-57.403 17.709-66.841 54.194-29.333l3.589 3.776 3.681 3.667c32.528 30.561 80.452 27.938 109.212-5.996l3.357-4.222 29.942-40.108c7.356-9.854 5.349-23.818-4.484-31.19-8.938-6.702-21.267-5.649-28.961 2.002l-2.161 2.492-29.949 40.117c-11.985 16.072-31.024 18.077-45.941 4.895l-2.925-2.839-3.84-4.002c-63.841-64.725-127.474-37.287-130.098 54.778l-0.084 5.964v334.532c0 129.159 36.063 170.374 154.787 171.971l231.49 0.049zM678.143 369.271c29.72 29.785 64.013 33.316 96.959 0.297 33.166-33.238 29.769-67.634 0-97.468v0l-12.246-12.284c-1.568-2.296-3.538-4.25-5.782-5.79l-86.345-86.505c-7.262-7.838-19.731-14.086-30.685-15.816v0l-39.975-5.638c-29.2-4.18-51.857 18.526-47.692 47.743v0l5.688 40.478c1.629 10.341 7.692 22.351 15.134 29.81v0l88.963 89.17c0.516 0.576 1.064 1.127 1.64 1.649zM671.85 299.947l-67.207-67.361c-0.767-0.769-2.484-4.169-2.598-4.878v0l-5.208-37.083 36.642 5.155c0.835 0.132 2.936 1.113 4.254 1.932v0l0.982 0.727 67.131 67.323c-13.58 8.899-25.161 20.543-33.996 34.184zM743.659 338.056c-13.986 14.017-20.454 13.351-34.072-0.297v0l-5.124-5.13c7.077-14.972 19.047-27.035 33.937-34.212l7.812 7.836c11.095 11.917 10.765 18.457-2.552 31.803zM598.674 487.812c12.279 0 22.234-9.976 22.234-22.282 0-11.281-8.365-20.603-19.217-22.079l-3.017-0.203h-177.871c-12.279 0-22.234 9.976-22.234 22.282 0 11.281 8.365 20.603 19.217 22.079l3.017 0.203h177.871zM628.319 606.651c12.279 0 22.234-9.976 22.234-22.282 0-11.281-8.365-20.603-19.217-22.079l-3.017-0.203h-237.162c-12.279 0-22.234 9.976-22.234 22.282 0 11.281 8.365 20.603 19.217 22.079l3.017 0.203h237.162z" />
<glyph unicode="&#x1302f;" glyph-name="g48-member" d="M721.904 690.571l-157.454 57.482c-26.189 9.529-69.102 9.529-95.292 0l-157.452-57.482c-36.286-13.218-65.947-55.023-65.947-92.525v-228.394c0-36.273 24.612-83.916 54.588-105.742l135.68-98.673c44.49-32.582 117.695-32.582 162.186 0l135.68 98.673c29.974 21.827 54.586 69.47 54.586 105.742v228.394c-0.632 37.502-30.292 79.307-66.576 92.525zM514.596 600.812c37.233 0 67.524-29.51 67.524-65.782 0-35.658-28.713-64.245-65-65.475h-1.262c-0.631 0-1.262 0-1.893 0-37.864 1.23-66.262 29.817-66.262 65.475-0.316 36.272 29.976 65.782 66.893 65.782zM585.907 314.014c-19.248-12.296-44.175-18.751-69.102-18.751s-50.17 6.148-69.102 18.751c-17.985 11.681-27.767 27.667-28.083 45.189 0 17.212 10.097 33.812 28.083 45.493 38.18 24.591 100.34 24.591 138.52 0 17.985-11.681 28.083-27.666 28.083-45.185-0.318-17.215-10.412-33.815-28.399-45.496z" />
<glyph unicode="&#x13030;" glyph-name="g49-comment" d="M626.307 755.2c126.309 0 192.893-66.399 192.893-192.356v-142.486c0-125.958-66.584-192.356-192.893-192.356h-14.288c-2.286 0-4.287-1.14-5.715-2.85l-42.865-56.994c-13.145-17.383-31.72-27.357-51.438-27.357s-38.293 9.974-51.438 27.357l-42.865 56.994c-0.857 1.14-4.287 2.565-5.715 2.85h-14.288c-119.165 0-192.893 32.202-192.893 192.356v142.486c0 125.958 66.584 192.356 192.893 192.356h228.614zM626.307 712.454h-228.614c-102.305 0-150.028-47.59-150.028-149.61v-142.486c0-127.466 43.376-149.165 146.744-149.604l17.573-0.007c14.574 0 31.149-8.264 40.007-19.948l42.865-56.994c10.002-13.109 24.29-13.109 34.292 0l42.865 56.994c9.43 12.539 24.29 19.948 40.007 19.948h14.288c102.305 0 150.028 47.59 150.028 149.61v142.486c0 102.020-47.723 149.61-150.028 149.61zM512 505.849c15.717 0 28.577-12.824 28.577-28.497s-12.574-28.497-28.577-28.497c-16.003 0-28.577 12.824-28.577 28.497s12.86 28.497 28.577 28.497zM626.307 505.849c15.717 0 28.577-12.824 28.577-28.497s-12.574-28.497-28.577-28.497c-16.003 0-28.577 12.824-28.577 28.497s12.86 28.497 28.577 28.497zM397.693 505.849c15.717 0 28.577-12.824 28.577-28.497s-12.574-28.497-28.577-28.497c-16.003 0-28.577 12.824-28.577 28.497s12.86 28.497 28.577 28.497z" />
<glyph unicode="&#x13031;" glyph-name="g50-branch" d="M319.107 755.2c63.13 0 114.307-51.177 114.307-114.307 0-56.047-40.337-102.673-93.565-112.43 13.264-34.118 45.683-58.11 82.973-60.048l5.385-0.125 97.999 0.286c77.107 0.294 145.644-45.339 176.338-113.871 3.125 0.281 6.293 0.421 9.493 0.421 59.186 0 107.163-47.977 107.163-107.163s-47.977-107.163-107.163-107.163c-59.186 0-107.163 47.977-107.163 107.163 0 40.722 22.712 76.137 56.159 94.271-23.942 48.537-72.761 81.135-128.068 83.356l-6.615 0.12-97.967-0.286c-36.374-0.192-70.034 14.037-94.983 37.686l0.001-110.13c48.912-9.931 85.724-53.175 85.724-105.018 0-59.185-47.978-107.163-107.163-107.163s-107.163 47.978-107.163 107.163c0 51.845 36.816 95.090 85.73 105.019l0.003 177.204c-49.303 12.688-85.733 57.443-85.733 110.707 0 63.13 51.177 114.307 114.307 114.307zM311.963 312.26c-35.511 0-64.298-28.786-64.298-64.298s28.787-64.298 64.298-64.298c35.511 0 64.298 28.786 64.298 64.298s-28.787 64.298-64.298 64.298zM712.037 312.26c-35.512 0-64.298-28.786-64.298-64.298s28.786-64.298 64.298-64.298c35.512 0 64.298 28.786 64.298 64.298s-28.786 64.298-64.298 64.298zM319.107 712.335c-39.456 0-71.442-31.985-71.442-71.442s31.985-71.442 71.442-71.442c39.456 0 71.442 31.985 71.442 71.442s-31.985 71.442-71.442 71.442z" />
</font>
</defs>
</svg>
